Вы используете незарегистрированную версию компонента "Вкладки"!

Поиск

(Avant-Garde, Contemporary Jazz) David Murray - Remembrances - 1991, FLAC (tracks+.cue), lossless

(Avant-Garde, Contemporary Jazz) David Murray - Remembrances - 1991, FLAC (tracks+.cue), lossless
Треклист:
David Murray / Remembrances
Жанр: Avant-Garde, Contemporary Jazz
Страна-производитель диска: Japan
Год издания: 1991
Издатель (лейбл): DIW Records
Номер по каталогу: DIW-849
Аудиокодек: FLAC (*.flac)
Тип рипа: tracks+.cue
Битрейт аудио: lossless
Продолжительность: 45:46
Источник (релизер): Max Monteiro
Наличие сканов в содержимом раздачи: да
Треклист:
1. Lo-Chi-Lo (David Murray) 7:30
2. I Want to See You Everyday of Your Life (Dave Burrell / Monica Larsson) 4:25
3. Dartman (David Murray) 8:14
4. Sometimes I Feel Like a Motherless Child (Traditional) 5:12
5. Popolo Paniolo (Dave Burrell / Monica Larsson) 7:31
6. Dextor’s Dues (David Murray) 7:43
7. Remembrances (David Murray) 5:13
 
Лог создания рипа
Exact Audio Copy V1.0 beta 3 from 29. August 2011
EAC extraction logfile from 1. March 2013, 9:36
David Murray / Remembrances
Used drive : SlimtypeeNAU508 5 Adapter: 1 ID: 0
Read mode : Secure
Utilize accurate stream : Yes
Defeat audio cache : Yes
Make use of C2 pointers : No
Read offset correction : 6
Overread into Lead-In and Lead-Out : No
Fill up missing offset samples with silence : Yes
Delete leading and trailing silent blocks : No
Null samples used in CRC calculations : Yes
Used interface : Native Win32 interface for Win NT & 2000
Gap handling : Appended to previous track
Used output format : User Defined Encoder
Selected bitrate : 768 kBit/s
Quality : High
Add ID3 tag : No
Command line compressor : C:\Program Files (x86)\Exact Audio Copy\Flac\flac.exe
Additional command line options : -8 -V -T "ARTIST=%artist%" -T "TITLE=%title%" -T "ALBUM=%albumtitle%" -T "DATE=%year%" -T "TRACKNUMBER=%tracknr%" -T "GENRE=%genre%" -T "PERFORMER=%albuminterpret%" -T "COMPOSER=%composer%" %haslyrics%--tag-from-file=LYRICS="%lyricsfile%"%haslyrics% -T "ALBUMARTIST=%albumartist%" -T "DISCNUMBER=%cdnumber%" -T "TOTALDISCS=%totalcds%" -T "TOTALTRACKS=%numtracks%" -T "COMMENT=%comment%" %source% -o %dest%
TOC of the extracted CD
Track | Start | Length | Start sector | End sector
---------------------------------------------------------
1 | 0:00.00 | 7:29.57 | 0 | 33731
2 | 7:29.57 | 4:24.55 | 33732 | 53586
3 | 11:54.37 | 8:13.43 | 53587 | 90604
4 | 20:08.05 | 5:11.47 | 90605 | 113976
5 | 25:19.52 | 7:31.00 | 113977 | 147801
6 | 32:50.52 | 7:42.43 | 147802 | 182494
7 | 40:33.20 | 5:12.55 | 182495 | 205949
Track 1
Filename C:\EAC rips\01 - Lo-Chi-Lo.wav
Pre-gap length 0:00:02.00
Peak level 100.0 %
Extraction speed 2.6 X
Track quality 100.0 %
Test CRC 261D2F79
Copy CRC 261D2F79
Accurately ripped (confidence 4) [A6AAA24F] (AR v1)
Copy OK
Track 2
Filename C:\EAC rips\02 - I Want to See You Every Day of Your Life.wav
Pre-gap length 0:00:01.37
Peak level 99.9 %
Extraction speed 2.8 X
Track quality 100.0 %
Test CRC 0EB68C85
Copy CRC 0EB68C85
Accurately ripped (confidence 4) [B536887D] (AR v1)
Copy OK
Track 3
Filename C:\EAC rips\03 - Dartman.wav
Pre-gap length 0:00:01.37
Peak level 94.9 %
Extraction speed 3.3 X
Track quality 100.0 %
Test CRC 0C735294
Copy CRC 0C735294
Accurately ripped (confidence 4) [0B43530E] (AR v1)
Copy OK
Track 4
Filename C:\EAC rips\04 - Sometimes I Feel Like a Motherless Child.wav
Pre-gap length 0:00:01.38
Peak level 66.9 %
Extraction speed 3.4 X
Track quality 100.0 %
Test CRC 948041F4
Copy CRC 948041F4
Accurately ripped (confidence 4) [42CAC33D] (AR v1)
Copy OK
Track 5
Filename C:\EAC rips\05 - Popolo Paniolo.wav
Pre-gap length 0:00:01.37
Peak level 100.0 %
Extraction speed 3.8 X
Track quality 100.0 %
Test CRC 30403EAD
Copy CRC 30403EAD
Accurately ripped (confidence 4) [B0A8BB53] (AR v1)
Copy OK
Track 6
Filename C:\EAC rips\06 - Dextor's Dues.wav
Pre-gap length 0:00:01.37
Peak level 89.7 %
Extraction speed 4.1 X
Track quality 100.0 %
Test CRC 7D588606
Copy CRC 7D588606
Accurately ripped (confidence 4) [B1B73DE4] (AR v1)
Copy OK
Track 7
Filename C:\EAC rips\07 - Remembrances.wav
Pre-gap length 0:00:01.38
Peak level 85.6 %
Extraction speed 3.5 X
Track quality 99.9 %
Test CRC 3E526F1C
Copy CRC 3E526F1C
Accurately ripped (confidence 4) [0FB910E9] (AR v1)
Copy OK
All tracks accurately ripped
No errors occurred
End of status report
---- CUETools DB Plugin V2.1.4
[CTDB TOCID: sQXQon5VoWquEVpubqm4dZP0x2Y-] disk not present in database
Submit result: sQXQon5VoWquEVpubqm4dZP0x2Y- has been uploaded
==== Log checksum 5CAB93A8C82C704E2D72A275B8157BC54D18FF5F81801BF4B20F17C2C1E89D0C ====
 
Содержание индексной карты (.CUE)
REM GENRE Jazz
REM DATE 1991
REM DISCID 480ABA07
REM COMMENT "ExactAudioCopy v1.0b3"
PERFORMER "David Murray"
TITLE "Remembrances"
FILE "01 - Lo-Chi-Lo.wav" WAVE
TRACK 01 AUDIO
TITLE "Lo-Chi-Lo"
PERFORMER "David Murray"
INDEX 01 00:00:00
TRACK 02 AUDIO
TITLE "I Want to See You Every Day of Your Life"
PERFORMER "David Murray"
INDEX 00 07:28:20
FILE "02 - I Want to See You Every Day of Your Life.wav" WAVE
INDEX 01 00:00:00
TRACK 03 AUDIO
TITLE "Dartman"
PERFORMER "David Murray"
INDEX 00 04:23:18
FILE "03 - Dartman.wav" WAVE
INDEX 01 00:00:00
TRACK 04 AUDIO
TITLE "Sometimes I Feel Like a Motherless Child"
PERFORMER "David Murray"
INDEX 00 08:12:05
FILE "04 - Sometimes I Feel Like a Motherless Child.wav" WAVE
INDEX 01 00:00:00
TRACK 05 AUDIO
TITLE "Popolo Paniolo"
PERFORMER "David Murray"
INDEX 00 05:10:10
FILE "05 - Popolo Paniolo.wav" WAVE
INDEX 01 00:00:00
TRACK 06 AUDIO
TITLE "Dextor's Dues"
PERFORMER "David Murray"
INDEX 00 07:29:38
FILE "06 - Dextor's Dues.wav" WAVE
INDEX 01 00:00:00
TRACK 07 AUDIO
TITLE "Remembrances"
PERFORMER "David Murray"
INDEX 00 07:41:05
FILE "07 - Remembrances.wav" WAVE
INDEX 01 00:00:00
Доп. информация: Recorded at Clinton Recording Studios, NYC July 30, 1990.
 
Состав
David Murray – Tenor Saxophone
Hugh Ragin – Trumpet
Dave Burrell – Piano
Wilber Morris – Bass
Tani Tabbal – Drums
Any questions -> support@pro-jazz.com. По всем вопросам пишите -> support@pro-jazz.com
09:41
182
Нет комментариев. Ваш будет первым!