Вы используете незарегистрированную версию компонента "Вкладки"!

Поиск

(avant-garde) [cd] The Monash Art Ensemble, George Lewis ‎– Hexis 2014, FLAC (tracks+.cue), lossless

(avant-garde) [cd] The Monash Art Ensemble, George Lewis ‎– Hexis 2014, FLAC (tracks+.cue), lossless
Треклист:
(avant-garde) [cd] The Monash Art Ensemble, George Lewis ‎– Hexis 2014, FLAC (tracks+.cue), lossless


The Monash Art Ensemble, George Lewis ‎– Hexis 2014

Жанр: avant-garde
Год выпуска: 2014
Издатель (лейбл): Jazzhead / HEAD199
Формат: FLAC (tracks+.cue)
Битрейт аудио: lossless
Продолжительность 49`38
Источник: what.cd

tracks

1 Fractals 7:35
2 Angry Bird 15:00
3 Tractatus 14:39
4 Triangle 12:10


 
.log
Exact Audio Copy V1.0 beta 3 from 29. August 2011
EAC extraction logfile from 8. March 2015, 17:15
George Lewis / Hexis - The Monash Art Ensemble
Used drive : ATAPI iHAS120 6 Adapter: 5 ID: 0
Read mode : Secure
Utilize accurate stream : Yes
Defeat audio cache : Yes
Make use of C2 pointers : No
Read offset correction : 6
Overread into Lead-In and Lead-Out : No
Fill up missing offset samples with silence : Yes
Delete leading and trailing silent blocks : No
Null samples used in CRC calculations : Yes
Used interface : Native Win32 interface for Win NT & 2000
Gap handling : Appended to previous track
Used output format : User Defined Encoder
Selected bitrate : 1024 kBit/s
Quality : High
Add ID3 tag : No
Command line compressor : C:\Program Files (x86)\Exact Audio Copy\Flac\flac.exe
Additional command line options : -8 -V -T "ARTIST=%artist%" -T "TITLE=%title%" -T "ALBUM=%albumtitle%" -T "DATE=%year%" -T "TRACKNUMBER=%tracknr%" -T "GENRE=%genre%" -T "PERFORMER=%albuminterpret%" -T "COMPOSER=%composer%" %haslyrics%--tag-from-file=LYRICS="%lyricsfile%"%haslyrics% -T "ALBUMARTIST=%albumartist%" -T "DISCNUMBER=%cdnumber%" -T "TOTALDISCS=%totalcds%" -T "TOTALTRACKS=%numtracks%" -T "COMMENT=%comment%" %source% -o %dest%
TOC of the extracted CD
Track | Start | Length | Start sector | End sector
---------------------------------------------------------
1 | 0:00.00 | 7:39.36 | 0 | 34460
2 | 7:39.36 | 15:04.39 | 34461 | 102299
3 | 22:44.00 | 14:42.22 | 102300 | 168471
4 | 37:26.22 | 12:11.21 | 168472 | 223317
Track 1
Filename Q:\RIP\01 - Fractals.wav
Pre-gap length 0:00:02.00
Peak level 92.6 %
Extraction speed 2.0 X
Track quality 99.9 %
Test CRC 2C8E794C
Copy CRC 2C8E794C
Track not present in AccurateRip database
Copy OK
Track 2
Filename Q:\RIP\02 - Angry Bird.wav
Peak level 100.0 %
Extraction speed 2.8 X
Track quality 100.0 %
Test CRC F349D230
Copy CRC F349D230
Track not present in AccurateRip database
Copy OK
Track 3
Filename Q:\RIP\03 - Tractatus.wav
Peak level 95.0 %
Extraction speed 3.4 X
Track quality 100.0 %
Test CRC 18D408E7
Copy CRC 18D408E7
Track not present in AccurateRip database
Copy OK
Track 4
Filename Q:\RIP\04 - Triangle.wav
Peak level 94.3 %
Extraction speed 3.7 X
Track quality 100.0 %
Test CRC 8AA75C98
Copy CRC 8AA75C98
Track not present in AccurateRip database
Copy OK
None of the tracks are present in the AccurateRip database
No errors occurred
End of status report
---- CUETools DB Plugin V2.1.4
[CTDB TOCID: bCvmGxYwnhfeC01l7LKpqAjaeb4-] disk not present in database
Submit result: bCvmGxYwnhfeC01l7LKpqAjaeb4- has been uploaded
==== Log checksum B3728BCD9250AE8D596A82E7A912C6E232F0B3ADEED5191F7EEC9AA0BE6C77DF ====
 
.cue
REM GENRE Jazz
REM DATE 2014
REM DISCID 2D0BA104
REM COMMENT ExactAudioCopy v1.0b3
PERFORMER "The Monash Art Ensemble, George Lewis"
TITLE "Hexis"
FILE "01 - Fractals.wav" WAVE
TRACK 01 AUDIO
TITLE "Fractals"
PERFORMER "The Monash Art Ensemble, George Lewis"
INDEX 01 00:00:00
FILE "02 - Angry Bird.wav" WAVE
TRACK 02 AUDIO
TITLE "Angry Bird"
PERFORMER "The Monash Art Ensemble, George Lewis"
INDEX 01 00:00:00
FILE "03 - Tractatus.wav" WAVE
TRACK 03 AUDIO
TITLE "Tractatus"
PERFORMER "The Monash Art Ensemble, George Lewis"
INDEX 01 00:00:00
FILE "04 - Triangle.wav" WAVE
TRACK 04 AUDIO
TITLE "Triangle"
PERFORMER "The Monash Art Ensemble, George Lewis"
INDEX 01 00:00:00
 
.accurip
[CUETools log; Date: 13/10/15 14:03:28; Version: 2.1.4]
Offset applied: -11
[CTDB TOCID: bCvmGxYwnhfeC01l7LKpqAjaeb4-] found.
Track | CTDB Status
1 | (2/2) Accurately ripped
2 | (2/2) Accurately ripped
3 | (2/2) Accurately ripped
4 | (2/2) Accurately ripped
[AccurateRip ID: 000810a7-00210e1d-2d0ba104] disk not present in database.
Track Peak [ CRC32 ] [W/O NULL] [ LOG ]
-- 99.9 [16DB82B8] [74E5CE60]
01 92.6 [F19DE37D] [E5161CD6] CRC32 : offset 11
02 99.9 [168A6C7D] [EB549BFA] CRC32 : offset 11
03 95.0 [5B4A5DA0] [951EC998] CRC32 : offset 11
04 94.3 [88866F01] [FA2C257D] CRC32 : offset 11

http://www.discogs.com/Monash-Art-Ensemble-The-George-Lewis-Hexis/release/7136055
другие релизы
По всем вопросам пишите личное сообщение пользователю M0p94ok.
16:11
177
Нет комментариев. Ваш будет первым!