Вы используете незарегистрированную версию компонента "Вкладки"!

Поиск

(avant-garde) [cd] Marilyn Crispell & Irene Schweizer - Overlapping Hands: Eight Segments 1991, FLAC (tracks+.cue), lossless

(avant-garde) [cd] Marilyn Crispell & Irene Schweizer - Overlapping Hands: Eight Segments 1991, FLAC (tracks+.cue), lossless
Треклист:
(avant-garde) [cd] Marilyn Crispell & Irene Schweizer - Overlapping Hands: Eight Segments 1991, FLAC (tracks+.cue), lossless


Marilyn Crispell & Irene Schweizer - Overlapping Hands: Eight Segments 1991

Жанр: avant-garde
Год выпуска: 1991
Издатель (лейбл):FMP / FMP CD 30
Формат: FLAC (tracks+.cue)
Битрейт аудио: lossless
Продолжительность
Источник: what.cd

tracks

1 Segment I 6:36
2 Segment II 3:48
3 Segment III 9:12
4 Segment IV 9:31
5 Segment V 9:02
6 Segment VI 9:35
7 Segment VII 6:10
8 Segment VIII 12:33


 
.log
Exact Audio Copy V1.1 from 23. June 2015
EAC extraction logfile from 13. July 2015, 20:57
Marilyn Crispell & Irene Schweizer / Overlapping Hands: Eight Segments
Used drive : HL-DT-STDVDRAM GT70N Adapter: 1 ID: 0
Read mode : Secure
Utilize accurate stream : Yes
Defeat audio cache : Yes
Make use of C2 pointers : No
Read offset correction : 103
Overread into Lead-In and Lead-Out : No
Fill up missing offset samples with silence : Yes
Delete leading and trailing silent blocks : No
Null samples used in CRC calculations : Yes
Used interface : Native Win32 interface for Win NT & 2000
Gap handling : Appended to previous track
Used output format : User Defined Encoder
Selected bitrate : 768 kBit/s
Quality : High
Add ID3 tag : Yes
Command line compressor : C:\Program Files (x86)\Exact Audio Copy\FLAC\FLAC.EXE
Additional command line options : -8 -V -T "ARTIST=%artist%" -T "TITLE=%title%" -T "ALBUM=%albumtitle%" -T "DATE=%year%" -T "TRACKNUMBER=%tracknr%" -T "GENRE=%genre%" -T "COMMENT=%comment%" -T "BAND=%albuminterpret%" -T "ALBUMARTIST=%albuminterpret%" -T "COMPOSER=%composer%" %haslyrics%--tag-from-file=LYRICS="%lyricsfile%"%haslyrics% -T "DISCNUMBER=%cdnumber%" -T "TOTALDISCS=%totalcds%" -T "TOTALTRACKS=%numtracks%" %hascover%--picture="%coverfile%"%hascover% %source% -o %dest%
TOC of the extracted CD
Track | Start | Length | Start sector | End sector
---------------------------------------------------------
1 | 0:02.00 | 6:34.68 | 150 | 29767
2 | 6:36.68 | 3:47.57 | 29768 | 46849
3 | 10:24.50 | 9:11.65 | 46850 | 88239
4 | 19:36.40 | 9:30.50 | 88240 | 131039
5 | 29:07.15 | 9:02.15 | 131040 | 171704
6 | 38:09.30 | 9:34.55 | 171705 | 214809
7 | 47:44.10 | 6:09.53 | 214810 | 242537
8 | 53:53.63 | 12:33.45 | 242538 | 299057
Track 1
Filename C:\Marilyn Crispell & Irene Schweizer - 1991 - Overlapping Hands - Eight Segments\01. Segment 1.wav
Pre-gap length 0:00:04.00
Peak level 20.0 %
Extraction speed 3.1 X
Track quality 100.0 %
Test CRC D7CE9964
Copy CRC D7CE9964
Track not present in AccurateRip database
Copy OK
Track 2
Filename C:\Marilyn Crispell & Irene Schweizer - 1991 - Overlapping Hands - Eight Segments\02. Segment 2.wav
Peak level 89.2 %
Extraction speed 2.7 X
Track quality 99.9 %
Test CRC 381EA895
Copy CRC 381EA895
Track not present in AccurateRip database
Copy OK
Track 3
Filename C:\Marilyn Crispell & Irene Schweizer - 1991 - Overlapping Hands - Eight Segments\03. Segment 3.wav
Peak level 86.4 %
Extraction speed 3.9 X
Track quality 100.0 %
Test CRC ED58E30A
Copy CRC ED58E30A
Track not present in AccurateRip database
Copy OK
Track 4
Filename C:\Marilyn Crispell & Irene Schweizer - 1991 - Overlapping Hands - Eight Segments\04. Segment 4.wav
Peak level 83.4 %
Extraction speed 4.4 X
Track quality 100.0 %
Test CRC C9C9BE92
Copy CRC C9C9BE92
Track not present in AccurateRip database
Copy OK
Track 5
Filename C:\Marilyn Crispell & Irene Schweizer - 1991 - Overlapping Hands - Eight Segments\05. Segment 5.wav
Peak level 33.2 %
Extraction speed 4.9 X
Track quality 100.0 %
Test CRC 872B0558
Copy CRC 872B0558
Track not present in AccurateRip database
Copy OK
Track 6
Filename C:\Marilyn Crispell & Irene Schweizer - 1991 - Overlapping Hands - Eight Segments\06. Segment 6.wav
Peak level 95.8 %
Extraction speed 5.3 X
Track quality 100.0 %
Test CRC 98A8E1B2
Copy CRC 98A8E1B2
Track not present in AccurateRip database
Copy OK
Track 7
Filename C:\Marilyn Crispell & Irene Schweizer - 1991 - Overlapping Hands - Eight Segments\07. Segment 7.wav
Peak level 58.6 %
Extraction speed 5.4 X
Track quality 100.0 %
Test CRC A5BC7893
Copy CRC A5BC7893
Track not present in AccurateRip database
Copy OK
Track 8
Filename C:\Marilyn Crispell & Irene Schweizer - 1991 - Overlapping Hands - Eight Segments\08. Segment 8.wav
Peak level 80.3 %
Extraction speed 6.0 X
Track quality 100.0 %
Test CRC 837A0662
Copy CRC 837A0662
Track not present in AccurateRip database
Copy OK
None of the tracks are present in the AccurateRip database
No errors occurred
End of status report
---- CUETools DB Plugin V2.1.6
[CTDB TOCID: FaRUWBqSn1jWXbYXTvAkCsoqa5c-] disk not present in database
Submit result: FaRUWBqSn1jWXbYXTvAkCsoqa5c- has been uploaded
==== Log checksum 62D6938B2B4978B979705AABBFEE492AC3683E44920D6DA5B9F8A9243F40B1EC ====
 
.cue
REM GENRE Jazz
REM DATE 1991
REM DISCID 7D0F9108
REM COMMENT "ExactAudioCopy v1.1"
PERFORMER "Marilyn Crispell & Irene Schweizer"
TITLE "Overlapping Hands: Eight Segments"
FILE "01. Segment 1.wav" WAVE
TRACK 01 AUDIO
TITLE "Segment 1"
PERFORMER "Marilyn Crispell & Irene Schweizer"
PREGAP 00:02:00
INDEX 01 00:00:00
FILE "02. Segment 2.wav" WAVE
TRACK 02 AUDIO
TITLE "Segment 2"
PERFORMER "Marilyn Crispell & Irene Schweizer"
INDEX 01 00:00:00
FILE "03. Segment 3.wav" WAVE
TRACK 03 AUDIO
TITLE "Segment 3"
PERFORMER "Marilyn Crispell & Irene Schweizer"
INDEX 01 00:00:00
FILE "04. Segment 4.wav" WAVE
TRACK 04 AUDIO
TITLE "Segment 4"
PERFORMER "Marilyn Crispell & Irene Schweizer"
INDEX 01 00:00:00
FILE "05. Segment 5.wav" WAVE
TRACK 05 AUDIO
TITLE "Segment 5"
PERFORMER "Marilyn Crispell & Irene Schweizer"
INDEX 01 00:00:00
FILE "06. Segment 6.wav" WAVE
TRACK 06 AUDIO
TITLE "Segment 6"
PERFORMER "Marilyn Crispell & Irene Schweizer"
INDEX 01 00:00:00
FILE "07. Segment 7.wav" WAVE
TRACK 07 AUDIO
TITLE "Segment 7"
PERFORMER "Marilyn Crispell & Irene Schweizer"
INDEX 01 00:00:00
FILE "08. Segment 8.wav" WAVE
TRACK 08 AUDIO
TITLE "Segment 8"
PERFORMER "Marilyn Crispell & Irene Schweizer"
INDEX 01 00:00:00

http://www.discogs.com/Marilyn-Crispell-Irene-Schweizer-Overlapping-Hands-Eight-S.../release/1668651
другие релизы
По всем вопросам пишите личное сообщение пользователю M0p94ok.
16:56
149
Нет комментариев. Ваш будет первым!