Вы используете незарегистрированную версию компонента "Вкладки"!

Поиск

(avant-garde) [cd] Kris Davis - Massive Threads (2013), FLAC (tracks+.cue), lossless

(avant-garde) [cd] Kris Davis - Massive Threads (2013), FLAC (tracks+.cue), lossless
Треклист:
(avant-garde) [cd] Kris Davis - Massive Threads (2013), FLAC (tracks+.cue), lossless


Kris Davis - Massive Threads (2013)

Жанр: avant-garde
Год выпуска: 2013
Издатель (лейбл):Thirsty Ear/THI57208.2
Формат: FLAC (tracks+.cue)
Битрейт аудио: lossless
Продолжительность 41`35
Источник: what.cd

tracks
1 Ten Exorcists
2 Desolation And Despair
3 Intermission Music
4 Massive Threads
5 Dancing Marlins
6 Evidence
7 Leaf-Like
8 Slow Growing


 
.log
X Lossless Decoder version 20131102 (145.0)
XLD extraction logfile from 2014-03-27 17:15:19 -0500
Kris Davis / Massive Threads
Used drive : MATSHITA DVD-R UJ-857D (revision KBVB)
Media type : Pressed CD
Ripper mode : XLD Secure Ripper
Disable audio cache : OK for the drive with a cache less than 1375KiB
Make use of C2 pointers : NO
Read offset correction : 102
Max retry count : 100
Gap status : Analyzed, Appended
TOC of the extracted CD
Track | Start | Length | Start sector | End sector
---------------------------------------------------------
1 | 00:00:00 | 07:31:52 | 0 | 33876
2 | 07:31:52 | 07:29:71 | 33877 | 67622
3 | 15:01:48 | 02:12:51 | 67623 | 77573
4 | 17:14:24 | 10:58:18 | 77574 | 126941
5 | 28:12:42 | 04:40:58 | 126942 | 147999
6 | 32:53:25 | 04:16:51 | 148000 | 167250
7 | 37:10:01 | 01:57:35 | 167251 | 176060
8 | 39:07:36 | 02:27:49 | 176061 | 187134
AccurateRip Summary
Disc not found in AccurateRip DB.
All Tracks
Album gain : -3.25 dB
Peak : 0.891510
Statistics
Read error : 0
Jitter error (maybe fixed) : 0
Retry sector count : 0
Damaged sector count : 0
Track 01
Filename : /Volumes/External HDD/New Created/Kris Davis - Massive Threads (2013) FLAC/01 - Ten Exorcists.flac
Pre-gap length : 00:02:00
Track gain : 0.29 dB
Peak : 0.891388
CRC32 hash (test run) : C042842A
CRC32 hash : C042842A
CRC32 hash (skip zero) : 0D48A965
AccurateRip v1 signature : 3371E088
AccurateRip v2 signature : 49862321
->Track not present in AccurateRip database.
Statistics
Read error : 0
Jitter error (maybe fixed) : 0
Retry sector count : 0
Damaged sector count : 0
Track 02
Filename : /Volumes/External HDD/New Created/Kris Davis - Massive Threads (2013) FLAC/02 - Desolation and Despair.flac
Pre-gap length : 00:03:60
Track gain : 4.57 dB
Peak : 0.891510
CRC32 hash (test run) : 69D3770F
CRC32 hash : 69D3770F
CRC32 hash (skip zero) : 8CBC00FC
AccurateRip v1 signature : 612F86AE
AccurateRip v2 signature : 3647900A
->Track not present in AccurateRip database.
Statistics
Read error : 0
Jitter error (maybe fixed) : 0
Retry sector count : 0
Damaged sector count : 0
Track 03
Filename : /Volumes/External HDD/New Created/Kris Davis - Massive Threads (2013) FLAC/03 - Intermission Music.flac
Pre-gap length : 00:01:00
Track gain : 0.75 dB
Peak : 0.891327
CRC32 hash (test run) : 9623C73B
CRC32 hash : 9623C73B
CRC32 hash (skip zero) : CF555CE4
AccurateRip v1 signature : 42F262B9
AccurateRip v2 signature : E41D0D76
->Track not present in AccurateRip database.
Statistics
Read error : 0
Jitter error (maybe fixed) : 0
Retry sector count : 0
Damaged sector count : 0
Track 04
Filename : /Volumes/External HDD/New Created/Kris Davis - Massive Threads (2013) FLAC/04 - Massive Threads.flac
Pre-gap length : 00:05:00
Track gain : -6.14 dB
Peak : 0.891479
CRC32 hash (test run) : E53753F1
CRC32 hash : E53753F1
CRC32 hash (skip zero) : 0F5D259A
AccurateRip v1 signature : A9BA5D26
AccurateRip v2 signature : E9B35245
->Track not present in AccurateRip database.
Statistics
Read error : 0
Jitter error (maybe fixed) : 0
Retry sector count : 0
Damaged sector count : 0
Track 05
Filename : /Volumes/External HDD/New Created/Kris Davis - Massive Threads (2013) FLAC/05 - Dancing Marlins.flac
Pre-gap length : 00:02:60
Track gain : -1.25 dB
Peak : 0.891327
CRC32 hash (test run) : CFB0BCF0
CRC32 hash : CFB0BCF0
CRC32 hash (skip zero) : 0A8DE55E
AccurateRip v1 signature : DBF4D467
AccurateRip v2 signature : 0D239CBE
->Track not present in AccurateRip database.
Statistics
Read error : 0
Jitter error (maybe fixed) : 0
Retry sector count : 0
Damaged sector count : 0
Track 06
Filename : /Volumes/External HDD/New Created/Kris Davis - Massive Threads (2013) FLAC/06 - Evidence.flac
Pre-gap length : 00:02:00
Track gain : 3.14 dB
Peak : 0.616760
CRC32 hash (test run) : 6473EB54
CRC32 hash : 6473EB54
CRC32 hash (skip zero) : 187F5F46
AccurateRip v1 signature : 27C90D58
AccurateRip v2 signature : 237645EB
->Track not present in AccurateRip database.
Statistics
Read error : 0
Jitter error (maybe fixed) : 0
Retry sector count : 0
Damaged sector count : 0
Track 07
Filename : /Volumes/External HDD/New Created/Kris Davis - Massive Threads (2013) FLAC/07 - Leaf-Like.flac
Pre-gap length : 00:03:37
Track gain : 0.23 dB
Peak : 0.891418
CRC32 hash (test run) : 5563D44F
CRC32 hash : 5563D44F
CRC32 hash (skip zero) : D3606706
AccurateRip v1 signature : DF74FD98
AccurateRip v2 signature : 48E8529A
->Track not present in AccurateRip database.
Statistics
Read error : 0
Jitter error (maybe fixed) : 0
Retry sector count : 0
Damaged sector count : 0
Track 08
Filename : /Volumes/External HDD/New Created/Kris Davis - Massive Threads (2013) FLAC/08 - Slow Growing.flac
Pre-gap length : 00:02:60
Track gain : 11.99 dB
Peak : 0.503723
CRC32 hash (test run) : A3265AAA
CRC32 hash : A3265AAA
CRC32 hash (skip zero) : 63038B8C
AccurateRip v1 signature : 5E1DA9FA
AccurateRip v2 signature : EA6EB955
->Track not present in AccurateRip database.
Statistics
Read error : 0
Jitter error (maybe fixed) : 0
Retry sector count : 0
Damaged sector count : 0
No errors occurred
End of status report
-----BEGIN XLD SIGNATURE-----
h1IWw5OdAatCBH7QG34g78dPq7ZYYbnw7wz_sbmPO9sCwen5fnBp9ZV7pDTY_RhaDD5Uh3P8AF20d81tDN.2Rrb7DKSSc1tK0GiRtAK
-----END XLD SIGNATURE-----
 
.cue
TITLE "Massive Threads"
PERFORMER "Kris Davis"
REM GENRE "Jazz"
REM DATE "2013"
REM DISCID 6909BF08
FILE "01 - Ten Exorcists.wav" WAVE
TRACK 01 AUDIO
TITLE "Ten Exorcists"
INDEX 01 00:00:00
TRACK 02 AUDIO
TITLE "Desolation and Despair"
INDEX 00 07:27:67
FILE "02 - Desolation and Despair.wav" WAVE
INDEX 01 00:00:00
TRACK 03 AUDIO
TITLE "Intermission Music"
INDEX 00 07:28:71
FILE "03 - Intermission Music.wav" WAVE
INDEX 01 00:00:00
TRACK 04 AUDIO
TITLE "Massive Threads"
INDEX 00 02:07:51
FILE "04 - Massive Threads.wav" WAVE
INDEX 01 00:00:00
TRACK 05 AUDIO
TITLE "Dancing Marlins"
INDEX 00 10:55:33
FILE "05 - Dancing Marlins.wav" WAVE
INDEX 01 00:00:00
TRACK 06 AUDIO
TITLE "Evidence"
INDEX 00 04:38:58
FILE "06 - Evidence.wav" WAVE
INDEX 01 00:00:00
TRACK 07 AUDIO
TITLE "Leaf-Like"
INDEX 00 04:13:14
FILE "07 - Leaf-Like.wav" WAVE
INDEX 01 00:00:00
TRACK 08 AUDIO
TITLE "Slow Growing"
INDEX 00 01:54:50
FILE "08 - Slow Growing.wav" WAVE
INDEX 01 00:00:00

http://www.discogs.com/Kris-Davis-Massive-Threads/release/5105390
другие релизы
По всем вопросам пишите личное сообщение пользователю M0p94ok.
05:19
191
Нет комментариев. Ваш будет первым!