Поиск

(avant-garde) [cd] Evan Parker, Alexander von Schlippenbach, Paul Lytton - America 2003, FLAC (tracks+.cue), lossless

(avant-garde) [cd] Evan Parker, Alexander von Schlippenbach, Paul Lytton - America 2003, FLAC (tracks+.cue), lossless
Треклист:
(avant-garde) [cd] Evan Parker, Alexander von Schlippenbach, Paul Lytton - America 2003, FLAC (tracks+.cue), lossless


Parker, Schlippenbach, Lytton - America 2003

Жанр:avant-garde
Год выпуска: 2003
Издатель (лейбл): psi 04.06/7
Формат: FLAC (tracks+.cue)
Битрейт аудио: lossless
Продолжительность: 2`00`05
Источник: what.cd
 
disc 1


disc 1

1-1 Rejoicing In Their Hearts Over The Journey 21:48
1-2 Ask To Be Taken On As A Trumpeter 5:43
1-3 This Blowing Of Trumpets Confused Them 9:48
1-4 What Memories Of The Past Were Recalled! 8:19
1-5 Perhaps This Was His Chance 8:25
1-6 To Avoid Monotony 6:07

 
.log
Exact Audio Copy V1.0 beta 3 from 29. August 2011
EAC extraction logfile from 7. December 2014, 12:30
Parker, Schlippenbach, Lytton / America 2003
Used drive : hp CDDVDW TS-L633N Adapter: 1 ID: 0
Read mode : Secure
Utilize accurate stream : Yes
Defeat audio cache : Yes
Make use of C2 pointers : No
Read offset correction : 6
Overread into Lead-In and Lead-Out : No
Fill up missing offset samples with silence : Yes
Delete leading and trailing silent blocks : No
Null samples used in CRC calculations : Yes
Used interface : Native Win32 interface for Win NT & 2000
Gap handling : Appended to previous track
Used output format : User Defined Encoder
Selected bitrate : 1024 kBit/s
Quality : High
Add ID3 tag : No
Command line compressor : C:\Program Files (x86)\Exact Audio Copy\Flac\flac.exe
Additional command line options : -8 -V -T "ARTIST=%artist%" -T "TITLE=%title%" -T "ALBUM=%albumtitle%" -T "DATE=%year%" -T "TRACKNUMBER=%tracknr%" -T "GENRE=%genre%" -T "PERFORMER=%albuminterpret%" -T "COMPOSER=%composer%" %haslyrics%--tag-from-file=LYRICS="%lyricsfile%"%haslyrics% -T "ALBUMARTIST=%albumartist%" -T "DISCNUMBER=%cdnumber%" -T "TOTALDISCS=%totalcds%" -T "TOTALTRACKS=%numtracks%" -T "COMMENT=%comment%" %source% -o %dest%
TOC of the extracted CD
Track | Start | Length | Start sector | End sector
---------------------------------------------------------
1 | 0:00.00 | 21:48.38 | 0 | 98137
2 | 21:48.38 | 5:43.25 | 98138 | 123887
3 | 27:31.63 | 9:48.65 | 123888 | 168052
4 | 37:20.53 | 8:19.45 | 168053 | 205522
5 | 45:40.23 | 8:25.62 | 205523 | 243459
6 | 54:06.10 | 6:07.14 | 243460 | 270998
Track 1
Filename C:\Music\Parker, Schlippenbach, Lytton - America 2003 (2004) [FLAC]\01 - Rejoicing In Their Hearts Over The Journey.wav
Pre-gap length 0:00:02.00
Peak level 98.8 %
Extraction speed 2.9 X
Track quality 100.0 %
Test CRC ECD294F9
Copy CRC ECD294F9
Accurately ripped (confidence 1) [46067CF1] (AR v2)
Copy OK
Track 2
Filename C:\Music\Parker, Schlippenbach, Lytton - America 2003 (2004) [FLAC]\02 - Ask To Be Taken On As A Trumpeter.wav
Pre-gap length 0:00:04.00
Peak level 50.0 %
Extraction speed 3.5 X
Track quality 100.0 %
Test CRC EBFD91A2
Copy CRC EBFD91A2
Accurately ripped (confidence 1) [E1D88BE5] (AR v2)
Copy OK
Track 3
Filename C:\Music\Parker, Schlippenbach, Lytton - America 2003 (2004) [FLAC]\03 - This Blowing Of Trumpets Confused Them.wav
Pre-gap length 0:00:04.00
Peak level 98.8 %
Extraction speed 4.0 X
Track quality 100.0 %
Test CRC A3A6BA17
Copy CRC A3A6BA17
Accurately ripped (confidence 1) [7F7C0A59] (AR v2)
Copy OK
Track 4
Filename C:\Music\Parker, Schlippenbach, Lytton - America 2003 (2004) [FLAC]\04 - What Memories Of The Past Were Recalled!.wav
Pre-gap length 0:00:04.00
Peak level 98.8 %
Extraction speed 4.1 X
Track quality 100.0 %
Test CRC 22CE2D1D
Copy CRC 22CE2D1D
Accurately ripped (confidence 1) [91937D67] (AR v2)
Copy OK
Track 5
Filename C:\Music\Parker, Schlippenbach, Lytton - America 2003 (2004) [FLAC]\05 - Perhaps This Was His Chance.wav
Pre-gap length 0:00:04.00
Peak level 52.7 %
Extraction speed 4.4 X
Track quality 100.0 %
Test CRC C8828BC8
Copy CRC C8828BC8
Accurately ripped (confidence 1) [09337F87] (AR v2)
Copy OK
Track 6
Filename C:\Music\Parker, Schlippenbach, Lytton - America 2003 (2004) [FLAC]\06 - To Avoid Monotony.wav
Pre-gap length 0:00:04.00
Peak level 98.8 %
Extraction speed 3.8 X
Track quality 99.9 %
Test CRC 890F1C2B
Copy CRC 890F1C2B
Accurately ripped (confidence 1) [6E587FC1] (AR v2)
Copy OK
All tracks accurately ripped
No errors occurred
End of status report
---- CUETools DB Plugin V2.1.3
[CTDB TOCID: FxHpMp9.UWDGO_ham3IKqbWi19Y-] found, Submit result: FxHpMp9.UWDGO_ham3IKqbWi19Y- has been confirmed
[5f0e7c30] (2/2) Accurately ripped
==== Log checksum B278F09448B43E2B70AA42E8384D0CBEE42544C131427FBE6EF9DB5C015CB906 ====
 
.cue
REM GENRE Jazz
REM DATE 2004
REM DISCID 400E1D06
REM COMMENT "ExactAudioCopy v1.0b3"
PERFORMER "Parker, Schlippenbach, Lytton"
TITLE "America 2003"
FILE "01 - Rejoicing In Their Hearts Over The Journey.wav" WAVE
TRACK 01 AUDIO
TITLE "Rejoicing In Their Hearts Over The Journey"
PERFORMER "Parker, Schlippenbach, Lytton"
INDEX 01 00:00:00
TRACK 02 AUDIO
TITLE "Ask To Be Taken On As A Trumpeter"
PERFORMER "Parker, Schlippenbach, Lytton"
INDEX 00 21:44:38
FILE "02 - Ask To Be Taken On As A Trumpeter.wav" WAVE
INDEX 01 00:00:00
TRACK 03 AUDIO
TITLE "This Blowing Of Trumpets Confused Them"
PERFORMER "Parker, Schlippenbach, Lytton"
INDEX 00 05:39:25
FILE "03 - This Blowing Of Trumpets Confused Them.wav" WAVE
INDEX 01 00:00:00
TRACK 04 AUDIO
TITLE "What Memories Of The Past Were Recalled!"
PERFORMER "Parker, Schlippenbach, Lytton"
INDEX 00 09:44:65
FILE "04 - What Memories Of The Past Were Recalled!.wav" WAVE
INDEX 01 00:00:00
TRACK 05 AUDIO
TITLE "Perhaps This Was His Chance"
PERFORMER "Parker, Schlippenbach, Lytton"
INDEX 00 08:15:45
FILE "05 - Perhaps This Was His Chance.wav" WAVE
INDEX 01 00:00:00
TRACK 06 AUDIO
TITLE "To Avoid Monotony"
PERFORMER "Parker, Schlippenbach, Lytton"
INDEX 00 08:21:62
FILE "06 - To Avoid Monotony.wav" WAVE
INDEX 01 00:00:00
 
disc 2


disc 2

2-1 No One Wanted To Be An Artist But Every Man Wanted To Be Paid For His Labours 15:00
2-2 The Breath Of Coldness 10:19
2-3 Are You Strong Enough For Heavy Work? 10:07
2-4 I Had A Friend Among The Angels 12:52
2-5 Down With All Those Who Do Not Believe In Us 11:32
Credits

 
.log
Exact Audio Copy V1.0 beta 3 from 29. August 2011
EAC extraction logfile from 7. December 2014, 13:13
Parker, Schlippenbach, Lytton / America 2003
Used drive : hp CDDVDW TS-L633N Adapter: 1 ID: 0
Read mode : Secure
Utilize accurate stream : Yes
Defeat audio cache : Yes
Make use of C2 pointers : No
Read offset correction : 6
Overread into Lead-In and Lead-Out : No
Fill up missing offset samples with silence : Yes
Delete leading and trailing silent blocks : No
Null samples used in CRC calculations : Yes
Used interface : Native Win32 interface for Win NT & 2000
Gap handling : Appended to previous track
Used output format : User Defined Encoder
Selected bitrate : 1024 kBit/s
Quality : High
Add ID3 tag : No
Command line compressor : C:\Program Files (x86)\Exact Audio Copy\Flac\flac.exe
Additional command line options : -8 -V -T "ARTIST=%artist%" -T "TITLE=%title%" -T "ALBUM=%albumtitle%" -T "DATE=%year%" -T "TRACKNUMBER=%tracknr%" -T "GENRE=%genre%" -T "PERFORMER=%albuminterpret%" -T "COMPOSER=%composer%" %haslyrics%--tag-from-file=LYRICS="%lyricsfile%"%haslyrics% -T "ALBUMARTIST=%albumartist%" -T "DISCNUMBER=%cdnumber%" -T "TOTALDISCS=%totalcds%" -T "TOTALTRACKS=%numtracks%" -T "COMMENT=%comment%" %source% -o %dest%
TOC of the extracted CD
Track | Start | Length | Start sector | End sector
---------------------------------------------------------
1 | 0:00.00 | 15:00.00 | 0 | 67499
2 | 15:00.00 | 10:19.65 | 67500 | 113989
3 | 25:19.65 | 10:07.51 | 113990 | 159565
4 | 35:27.41 | 12:52.34 | 159566 | 217499
5 | 48:20.00 | 11:32.01 | 217500 | 269400
Track 1
Filename C:\Music\Parker, Schlippenbach, Lytton - America 2003 (2004) [FLAC]\CD 2\01 - No One Wanted To Be An Artist But Every Man Wanted To Be Paid For His Labours.wav
Pre-gap length 0:00:02.00
Peak level 98.8 %
Extraction speed 2.7 X
Track quality 100.0 %
Test CRC DAE3566F
Copy CRC DAE3566F
Accurately ripped (confidence 1) [80C38D45] (AR v2)
Copy OK
Track 2
Filename C:\Music\Parker, Schlippenbach, Lytton - America 2003 (2004) [FLAC]\CD 2\02 - The Breath Of Coldness.wav
Pre-gap length 0:00:04.00
Peak level 24.2 %
Extraction speed 3.3 X
Track quality 100.0 %
Test CRC 57CAC21F
Copy CRC 57CAC21F
Accurately ripped (confidence 1) [E785F372] (AR v2)
Copy OK
Track 3
Filename C:\Music\Parker, Schlippenbach, Lytton - America 2003 (2004) [FLAC]\CD 2\03 - Are You Strong Enough For Heavy Work.wav
Pre-gap length 0:00:04.00
Peak level 98.8 %
Extraction speed 3.8 X
Track quality 100.0 %
Test CRC 6599DA22
Copy CRC 6599DA22
Accurately ripped (confidence 1) [906A5E3C] (AR v2)
Copy OK
Track 4
Filename C:\Music\Parker, Schlippenbach, Lytton - America 2003 (2004) [FLAC]\CD 2\04 - I Had A Friend Among The Angels.wav
Pre-gap length 0:00:04.00
Peak level 98.8 %
Extraction speed 4.2 X
Track quality 100.0 %
Test CRC 86D3C8D1
Copy CRC 86D3C8D1
Accurately ripped (confidence 1) [450EE266] (AR v2)
Copy OK
Track 5
Filename C:\Music\Parker, Schlippenbach, Lytton - America 2003 (2004) [FLAC]\CD 2\05 - Down With All Those Who Do Not Believe In Us.wav
Pre-gap length 0:00:04.00
Peak level 98.9 %
Extraction speed 4.6 X
Track quality 100.0 %
Test CRC 02A63248
Copy CRC 02A63248
Accurately ripped (confidence 1) [49007381] (AR v2)
Copy OK
All tracks accurately ripped
No errors occurred
End of status report
---- CUETools DB Plugin V2.1.3
[CTDB TOCID: HSmzhygaIYWwtO.QlHVGobxoUUc-] found, Submit result: HSmzhygaIYWwtO.QlHVGobxoUUc- has been confirmed
[22d8fafb] (2/2) Accurately ripped
==== Log checksum F4D9F26570E5169F1D777F054B7E096EAA1588B73AB20A7D48A9BAC9149C777B ====
 
.cue
REM GENRE Jazz
REM DATE 2004
REM DISCID 310E0805
REM COMMENT "ExactAudioCopy v1.0b3"
PERFORMER "Parker, Schlippenbach, Lytton"
TITLE "America 2003"
FILE "01 - No One Wanted To Be An Artist But Every Man Wanted To Be Paid For His Labours.wav" WAVE
TRACK 01 AUDIO
TITLE "No One Wanted To Be An Artist But Every Man Wanted To Be Paid For His Labours"
PERFORMER "Parker, Schlippenbach, Lytton"
INDEX 01 00:00:00
TRACK 02 AUDIO
TITLE "The Breath Of Coldness"
PERFORMER "Parker, Schlippenbach, Lytton"
INDEX 00 14:56:00
FILE "02 - The Breath Of Coldness.wav" WAVE
INDEX 01 00:00:00
TRACK 03 AUDIO
TITLE "Are You Strong Enough For Heavy Work?"
PERFORMER "Parker, Schlippenbach, Lytton"
INDEX 00 10:15:65
FILE "03 - Are You Strong Enough For Heavy Work.wav" WAVE
INDEX 01 00:00:00
TRACK 04 AUDIO
TITLE "I Had A Friend Among The Angels"
PERFORMER "Parker, Schlippenbach, Lytton"
INDEX 00 10:03:51
FILE "04 - I Had A Friend Among The Angels.wav" WAVE
INDEX 01 00:00:00
TRACK 05 AUDIO
TITLE "Down With All Those Who Do Not Believe In Us"
PERFORMER "Parker, Schlippenbach, Lytton"
INDEX 00 12:48:34
FILE "05 - Down With All Those Who Do Not Believe In Us.wav" WAVE
INDEX 01 00:00:00
http://www.discogs.com/Parker-Schlippenbach-Lytton-America-2003/release/1045001
другие релизы
10:02
408
Нет комментариев. Ваш будет первым!