Вы используете незарегистрированную версию компонента "Вкладки"!

Поиск

(Avant-Garde, Cabaret) Pascal Comelade - Traffic D'Abstraction - 1993, FLAC (image+.cue), lossless

(Avant-Garde, Cabaret) Pascal Comelade - Traffic D'Abstraction - 1993, FLAC (image+.cue), lossless
Треклист:
Pascal Comelade / Traffic D'Abstraction
Жанр: Avant-Garde, Cabaret
Страна-производитель диска: France
Год издания: 1993
Издатель (лейбл): Delabel
Номер по каталогу: DE 031111
Страна: France
Аудиокодек: FLAC (*.flac)
Тип рипа: image+.cue
Битрейт аудио: lossless
Продолжительность: 00:43:38
Источник (релизер): Личная коллекция
Наличие сканов в содержимом раздачи: да
Треклист:
1 Arthur Cravan Was A Flor Fina
2 The Skatalan Logicofobism
3 Sardana Dels Desemparats
4 A La Recherche Du Baron Corvo
5 I Put A Barbara Steele On You
6 Le Couteau Entre Les Dents
7 Zigo-Zigo Della Moreneta
8 Haïku De Tango
9 L'Orquestra Del Titanic Plays "That's Amore"
10 Like A Rolling Stone
11 Johnny Guitar (Du Film Du Même Nom)
12 Also Sprach Ed Marimba
13 Danse Du Valseur Callipyge
14 La Sinistre Main Gauche
15 Portrait D'Enric Avec Son Chapeau
16 Promenade Des Schizophrènes
17 Souvenirs De Vernet Les Bains
 
Содержание индексной карты (.CUE)
REM GENRE Blues
REM DATE 1993
REM DISCID E30A3A11
REM COMMENT "ExactAudioCopy v1.0b3"
PERFORMER "Pascal Comelade"
TITLE "Traffic d'abstraction"
FILE "Pascal Comelade - Traffic d'abstraction.wav" WAVE
TRACK 01 AUDIO
TITLE "Arthur cravan was a Flor Fina"
PERFORMER "Pascal Comelade"
INDEX 01 00:00:00
TRACK 02 AUDIO
TITLE "The Skatalan Logicofobism"
PERFORMER "Pascal Comelade"
INDEX 00 02:11:42
INDEX 01 02:13:62
TRACK 03 AUDIO
TITLE "Sardana dels Desemparats"
PERFORMER "Pascal Comelade"
INDEX 00 04:59:55
INDEX 01 05:01:70
TRACK 04 AUDIO
TITLE "A la recherche du Baron Corvo"
PERFORMER "Pascal Comelade"
INDEX 00 08:59:05
INDEX 01 09:01:17
TRACK 05 AUDIO
TITLE "I put a Barbara Steele on you"
PERFORMER "Pascal Comelade"
INDEX 00 11:46:30
INDEX 01 11:48:52
TRACK 06 AUDIO
TITLE "Le couteau entre les dents"
PERFORMER "Pascal Comelade"
INDEX 00 13:15:17
INDEX 01 13:17:30
TRACK 07 AUDIO
TITLE "Zigo-zigo della moreneta"
PERFORMER "Pascal Comelade"
INDEX 00 15:38:67
INDEX 01 15:41:07
TRACK 08 AUDIO
TITLE "Haiku de tango"
PERFORMER "Pascal Comelade"
INDEX 00 17:52:42
INDEX 01 17:54:52
TRACK 09 AUDIO
TITLE "L'Orquestra del Titanic plays 'That's Amore'"
PERFORMER "Pascal Comelade"
INDEX 00 19:07:17
INDEX 01 19:09:30
TRACK 10 AUDIO
TITLE "Like a Rolling Stone"
PERFORMER "Pascal Comelade"
INDEX 00 22:01:05
INDEX 01 22:03:15
TRACK 11 AUDIO
TITLE "Johnny Guitar"
PERFORMER "Pascal Comelade"
INDEX 00 23:50:30
INDEX 01 23:52:42
TRACK 12 AUDIO
TITLE "Also Sprach Ed Marimba"
PERFORMER "Pascal Comelade"
INDEX 00 25:39:55
INDEX 01 25:41:60
TRACK 13 AUDIO
TITLE "Danse du valseur Callipyge"
PERFORMER "Pascal Comelade"
INDEX 00 28:15:05
INDEX 01 28:17:12
TRACK 14 AUDIO
TITLE "La sinistre main gauche"
PERFORMER "Pascal Comelade"
INDEX 00 30:40:42
INDEX 01 30:42:52
TRACK 15 AUDIO
TITLE "Portrait d'Enric avec son chapeau"
PERFORMER "Pascal Comelade"
INDEX 00 32:46:42
INDEX 01 32:48:47
TRACK 16 AUDIO
TITLE "Promenade des schizophrenes"
PERFORMER "Pascal Comelade"
INDEX 00 34:23:30
INDEX 01 34:25:47
TRACK 17 AUDIO
TITLE "Souvenirs de Vernet les Bains"
PERFORMER "Pascal Comelade"
INDEX 00 40:43:55
INDEX 01 40:45:65
 
Лог проверки качества
Exact Audio Copy V1.0 beta 3 from 29. August 2011
EAC extraction logfile from 29. March 2013, 21:13
Pascal Comelade / Traffic d'abstraction
Used drive : TSSTcorpCDDVDW SH-222AL Adapter: 1 ID: 0
Read mode : Secure
Utilize accurate stream : Yes
Defeat audio cache : Yes
Make use of C2 pointers : No
Read offset correction : 6
Overread into Lead-In and Lead-Out : No
Fill up missing offset samples with silence : Yes
Delete leading and trailing silent blocks : No
Null samples used in CRC calculations : Yes
Used interface : Installed external ASPI interface
Used output format : Internal WAV Routines
Sample format : 44.100 Hz; 16 Bit; Stereo
TOC of the extracted CD
Track | Start | Length | Start sector | End sector
---------------------------------------------------------
1 | 0:00.00 | 2:13.62 | 0 | 10036
2 | 2:13.62 | 2:48.08 | 10037 | 22644
3 | 5:01.70 | 3:59.22 | 22645 | 40591
4 | 9:01.17 | 2:47.35 | 40592 | 53151
5 | 11:48.52 | 1:28.53 | 53152 | 59804
6 | 13:17.30 | 2:23.52 | 59805 | 70581
7 | 15:41.07 | 2:13.45 | 70582 | 80601
8 | 17:54.52 | 1:14.53 | 80602 | 86204
9 | 19:09.30 | 2:53.60 | 86205 | 99239
10 | 22:03.15 | 1:49.27 | 99240 | 107441
11 | 23:52.42 | 1:49.18 | 107442 | 115634
12 | 25:41.60 | 2:35.27 | 115635 | 127286
13 | 28:17.12 | 2:25.40 | 127287 | 138201
14 | 30:42.52 | 2:05.70 | 138202 | 147646
15 | 32:48.47 | 1:37.00 | 147647 | 154921
16 | 34:25.47 | 6:20.18 | 154922 | 183439
17 | 40:45.65 | 2:53.02 | 183440 | 196416
Range status and errors
Selected range
Filename D:\torrent-razdacha\Pascal Comelade - Traffic d'abstraction 1993\Pascal Comelade - Traffic d'abstraction.wav
Peak level 99.8 %
Extraction speed 6.7 X
Range quality 100.0 %
Test CRC 97ED646E
Copy CRC 97ED646E
Copy OK
No errors occurred
AccurateRip summary
Track 1 accurately ripped (confidence 5) [49517DD5] (AR v1)
Track 2 accurately ripped (confidence 5) [EB874E59] (AR v1)
Track 3 accurately ripped (confidence 5) [71AAF8C7] (AR v1)
Track 4 accurately ripped (confidence 5) [DC68DE3F] (AR v1)
Track 5 accurately ripped (confidence 5) [15C1011C] (AR v1)
Track 6 accurately ripped (confidence 5) [8310E3D0] (AR v1)
Track 7 accurately ripped (confidence 5) [41DC47D5] (AR v1)
Track 8 accurately ripped (confidence 5) [13F7720C] (AR v1)
Track 9 accurately ripped (confidence 5) [68736CE6] (AR v1)
Track 10 accurately ripped (confidence 5) [57A787E3] (AR v1)
Track 11 accurately ripped (confidence 5) [D451959B] (AR v1)
Track 12 accurately ripped (confidence 5) [32786BA4] (AR v1)
Track 13 accurately ripped (confidence 5) [6770FE02] (AR v1)
Track 14 accurately ripped (confidence 5) [2FF8E21C] (AR v1)
Track 15 accurately ripped (confidence 5) [7184F5C1] (AR v1)
Track 16 accurately ripped (confidence 5) [F30CE42F] (AR v1)
Track 17 accurately ripped (confidence 5) [DADFF6C0] (AR v1)
All tracks accurately ripped
End of status report
==== Log checksum 9553BBB6C13D078BD647309514A5EFBECB430C0DCB0B990723016845EE2B3167 ====
Any questions -> support@pro-jazz.com. По всем вопросам пишите -> support@pro-jazz.com
10:26
139
Нет комментариев. Ваш будет первым!