Вы используете незарегистрированную версию компонента "Вкладки"!

Поиск

(Avant-Garde, Avant-Garde Jazz, Modern Composition) [CD] William Roper (feat. Alex Cline) - If I Ran The Circus - 2003, FLAC (tracks+.cue), lossless

(Avant-Garde, Avant-Garde Jazz, Modern Composition) [CD] William Roper (feat. Alex Cline) - If I Ran The Circus - 2003, FLAC (tracks+.cue), lossless
Треклист:
William Roper / If I Ran The Circus
Жанр: Avant-Garde, Avant-Garde Jazz, Modern Composition
Носитель: CD
Страна-производитель диска: US
Год издания: 2003
Издатель (лейбл): Tomato Sage Consortium Records
Номер по каталогу: TSCR 0001
Страна: US
Аудиокодек: FLAC (*.flac)
Тип рипа: tracks+.cue
Битрейт аудио: lossless
Продолжительность: 61:24
Источник (релизер): свой фирменный диск
Наличие сканов в содержимом раздачи:
Треклист:
1. Three Guys On A Hilltop - The Ascension (If I Ran The Circus) 14:26
2. Images Of Issey Miyake 5:40
3. Throttle Up! - In Memorium 51-L 9:04
4. Poem For Emmett Till - A Freedom Song 14:48
5. Darkest Night - Balthazar Joins The Sacred Company 16:59
 
Лог создания рипа
Exact Audio Copy V1.0 beta 3 from 29. August 2011
EAC extraction logfile from 23. March 2014, 14:16
William Roper / If I Ran The Circus
Used drive : PIONEER DVD-RW DVR-115D Adapter: 0 ID: 0
Read mode : Secure
Utilize accurate stream : Yes
Defeat audio cache : Yes
Make use of C2 pointers : No
Read offset correction : 48
Overread into Lead-In and Lead-Out : No
Fill up missing offset samples with silence : Yes
Delete leading and trailing silent blocks : No
Null samples used in CRC calculations : Yes
Used interface : Installed external ASPI interface
Gap handling : Appended to previous track
Used output format : User Defined Encoder
Selected bitrate : 896 kBit/s
Quality : High
Add ID3 tag : No
Command line compressor : C:\Program Files\Exact Audio Copy\FLAC\FLAC.EXE
Additional command line options : -6 -V -T "ARTIST=%artist%" -T "TITLE=%title%" -T "ALBUM=%albumtitle%" -T "DATE=%year%" -T "TRACKNUMBER=%tracknr%" -T "GENRE=%genre%" -T "COMMENT=%comment%" -T "BAND=%albuminterpret%" -T "COMPOSER=%composer%" %haslyrics%--tag-from-file=LYRICS="%lyricsfile%"%haslyrics% -T "DISCNUMBER=%cdnumber%" -T "TOTALDISCS=%totalcds%" -T "TOTALTRACKS=%numtracks%" %hascover%--picture="%coverfile%"%hascover% %source% -o %dest%
TOC of the extracted CD
Track | Start | Length | Start sector | End sector
---------------------------------------------------------
1 | 0:00.00 | 14:26.44 | 0 | 64993
2 | 14:26.44 | 5:45.37 | 64994 | 90905
3 | 20:12.06 | 9:16.00 | 90906 | 132605
4 | 29:28.06 | 14:57.56 | 132606 | 199936
5 | 44:25.62 | 16:58.73 | 199937 | 276359
Track 1
Filename D:\zzz\01 - Three Guys On A Hilltop - The Ascension (If I Ran The Circus).wav
Pre-gap length 0:00:02.00
Peak level 96.6 %
Extraction speed 5.3 X
Track quality 100.0 %
Test CRC BE0D793D
Copy CRC BE0D793D
Track not present in AccurateRip database
Copy OK
Track 2
Filename D:\zzz\02 - Images Of Issey Miyake.wav
Pre-gap length 0:00:10.00
Peak level 96.8 %
Extraction speed 6.0 X
Track quality 100.0 %
Test CRC 0D2632B4
Copy CRC 0D2632B4
Track not present in AccurateRip database
Copy OK
Track 3
Filename D:\zzz\03 - Throttle Up! - In Memorium 51-L.wav
Pre-gap length 0:00:10.00
Peak level 96.6 %
Extraction speed 6.8 X
Track quality 100.0 %
Test CRC 5C293951
Copy CRC 5C293951
Track not present in AccurateRip database
Copy OK
Track 4
Filename D:\zzz\04 - Poem For Emmett Till - A Freedom Song.wav
Pre-gap length 0:00:10.00
Peak level 96.6 %
Extraction speed 7.8 X
Track quality 100.0 %
Test CRC 80060E80
Copy CRC 80060E80
Track not present in AccurateRip database
Copy OK
Track 5
Filename D:\zzz\05 - Darkest Night - Balthazar Joins The Sacred Company.wav
Pre-gap length 0:00:10.00
Peak level 89.8 %
Extraction speed 8.8 X
Track quality 100.0 %
Test CRC 0FB1A627
Copy CRC 0FB1A627
Track not present in AccurateRip database
Copy OK
None of the tracks are present in the AccurateRip database
No errors occurred
End of status report
==== Log checksum 6E17C3D72F016F1FE79E2D4E7D253FD391CBB34E3623FFB4FD91AEA15A267E97 ====
 
Содержание индексной карты (.CUE)
REM GENRE "Modern Classical"
REM DATE 2003
REM DISCID 440E6405
REM COMMENT "ExactAudioCopy v1.0b3"
PERFORMER "William Roper"
TITLE "If I Ran The Circus"
FILE "01 - Three Guys On A Hilltop - The Ascension (If I Ran The Circus).wav" WAVE
TRACK 01 AUDIO
TITLE "Three Guys On A Hilltop - The Ascension (If I Ran The Circus)"
PERFORMER "William Roper"
INDEX 01 00:00:00
TRACK 02 AUDIO
TITLE "Images Of Issey Miyake"
PERFORMER "William Roper"
INDEX 00 14:16:44
FILE "02 - Images Of Issey Miyake.wav" WAVE
INDEX 01 00:00:00
TRACK 03 AUDIO
TITLE "Throttle Up! - In Memorium 51-L"
PERFORMER "William Roper"
INDEX 00 05:35:37
FILE "03 - Throttle Up! - In Memorium 51-L.wav" WAVE
INDEX 01 00:00:00
TRACK 04 AUDIO
TITLE "Poem For Emmett Till - A Freedom Song"
PERFORMER "William Roper"
INDEX 00 09:06:00
FILE "04 - Poem For Emmett Till - A Freedom Song.wav" WAVE
INDEX 01 00:00:00
TRACK 05 AUDIO
TITLE "Darkest Night - Balthazar Joins The Sacred Company"
PERFORMER "William Roper"
INDEX 00 14:47:56
FILE "05 - Darkest Night - Balthazar Joins The Sacred Company.wav" WAVE
INDEX 01 00:00:00
 
Лог проверки качества
d:\>d:\aucdtect -d/-m0 d:\zzz\*.wav
auCDtect: CD records authenticity detector, version 0.8.2
Copyright (c) 2004 Oleg Berngardt. All rights reserved.
Copyright (c) 2004 Alexander Djourik. All rights reserved.
------------------------------------------------------------
Processing file: [01. Three Guys On A Hilltop - The Ascension (If I Ran The Circus).wav]
------------------------------------------------------------
This track looks like CDDA with probability 87%
------------------------------------------------------------
Processing file: [02. Images Of Issey Miyake.wav]
------------------------------------------------------------
This track looks like CDDA with probability 100%
------------------------------------------------------------
Processing file: [03. Throttle Up! - In Memorium 51-L.wav]
------------------------------------------------------------
This track looks like MPEG with probability 80%
------------------------------------------------------------
Processing file: [04. Poem For Emmett Till - A Freedom Song.wav]
------------------------------------------------------------
This track looks like CDDA with probability 100%
------------------------------------------------------------
Processing file: [05. Darkest Night - Balthazar Joins The Sacred Company.wav]
------------------------------------------------------------
This track looks like CDDA with probability 100%
------------------------------------------------------------
Final Conclusion:
------------------------------------------------------------
These tracks looks like CDDA with probability 100%
Доп. информация:
 
Album Info & AAJ Review
Recording of 1. and 3. made possible through a grant from the American Composers Forum, Los Angeles Chapter.
Recording dates: 09/24/02 (1), 08/20/02 (2), 08/22/02 (3), 04/05/02 (4), 10/02/01 (5)
Recorded and mastered at Newzone Studio, Los Angeles, CA
Wayne Peet: engineer
Produced by William Roper
Front panel painting: The Big Top! - William Roper
Back panel collage: Gone Fishing - William Roper
Tray card photo: Kathryn Oshima
Liner notes: William Roper
William Roper makes an auspicious launch of his Tomato Sage Consortium Records with If I Ran the Circus, a collection of solos and small ensembles composed by Roper and featuring improvisations by veterans of the EAR Unit, the Terry sisters, Alex Cline, and of course Roper himself, among others. The compositions reflect the tuba player's unique sense of whimsy, drama, and spatial relations.
Playing out like a suite, "Three Guys on a Hilltop... features Roper, EAR Unit's Dorothy Stone on flute, and Alex Cline on percussion. The piece belongs to Stone, whose impassioned flutistry holds dominant voice. After a tinker toy opening with Stone vocalizing and blowing, Cline creates solo thunder. Roper and Stone double a haunting theme that Stone beautifully explores a capella. Roper returns to once again argue the overlooked subtlety of fine tuba playing, resolving in duo with Stone. Cline rejoins to stir the pot to boil.
Roper solos on his "Images of Issey Miyake, an open and unhurried set of sonorous impressions. Symphonic orchestral veterans Lesa Terry on violin and Zela Terry on cello join Joseph Mitchell on glockenspiel for the emotional "Throttle-Up!-In Memorium 51-L. Both Terrys play with a warmth and urgency that make this rich track heart-wrenching.
Speaking of heart wrenching, Roper's "Poem for Emmett Till... revisits that epically ugly episode in American racism in which a black fourteen year-old Chicago boy was savagely beaten, tortured, and shot to death for talking to white woman on a visit to relatives in the south. Erika Duke-Kirkpatrick plays cello, vocalizes, and stomps the hi-hat cymbal, her cello slurring mournfully downward. Her screams and string slashes create an appropriately harrowing soundtrack. His softly spoken name and the ethereal harmonics ending the piece make for unforgettable listening.
The set ends with Roper sampling wind and wild animals for "Darkest Night... Joseph Mitchell joins Roper on hypnotic percussion as the tuba journeys through an animated soundscape.
Roper uses his label's debut to showcase the breadth of his compositional ambitions, erecting a big top full of wonders.
 
Состав
Dorothy Stone: flute, voice (1)
Alex Cline: drums & percussion (1)
William Roper: tuba & singing bell (1), tuba (2), tuba, keyboard, samples, sona, percussion (5)
Lesa Terry: violin (3)
Zela Terry: cello (3)
Joseph Mitchell: glockenspiel (3), drums & percussion (5)
Erika Duke-Kirkpatrick: cello, hi-hat, voice (4)
По всем вопросам пишите личное сообщение пользователю M0p94ok.
01:21
168
Нет комментариев. Ваш будет первым!