Поиск

(Avant-garde) Arcado String Trio - Behind the Myth - 1990, FLAC (image+.cue), lossless

(Avant-garde) Arcado String Trio - Behind the Myth - 1990, FLAC (image+.cue), lossless
Треклист:
Arcado String Trio - Behind the Myth
Жанр: Avant-garde
Год выпуска диска: 1990
Производитель диска: Germany
Аудио кодек: FLAC
Тип рипа: image+.cue
Битрейт аудио: lossless
Продолжительность: 53:55
Hank Roberts cello
Mark Dresser double bass
Mark Feldman violin
Ediface
Waterburg Trio
Thematica
Behind the Myth
Kerney
Somewhere

 
EAC Report
Exact Audio Copy V0.99 prebeta 4 from 23. January 2008
EAC extraction logfile from 26. July 2008, 20:42
Arcado / Behind the Myth
Used drive : TSSTcorpCD/DVDW SH-S182M Adapter: 2 ID: 1
Read mode : Secure
Utilize accurate stream : Yes
Defeat audio cache : Yes
Make use of C2 pointers : No
Read offset correction : 6
Overread into Lead-In and Lead-Out : No
Fill up missing offset samples with silence : Yes
Delete leading and trailing silent blocks : No
Null samples used in CRC calculations : No
Used interface : Installed external ASPI interface
Used output format : User Defined Encoder
Selected bitrate : 1024 kBit/s
Quality : High
Add ID3 tag : No
Command line compressor : C:\Program Files\Exact Audio Copy\FLAC\FLAC.EXE
Additional command line options : -6 -V -T "ARTIST=%a" -T "TITLE=%t" -T "ALBUM=%g" -T "DATE=%y" -T "TRACKNUMBER=%n" -T "GENRE=%m" -T "COMMENT=%e" %s -o %d
TOC of the extracted CD
Track | Start | Length | Start sector | End sector
---------------------------------------------------------
1 | 0:00.33 | 7:44.00 | 33 | 34832
2 | 7:44.33 | 10:27.00 | 34833 | 81857
3 | 18:11.33 | 8:39.00 | 81858 | 120782
4 | 26:50.33 | 12:54.00 | 120783 | 178832
5 | 39:44.33 | 8:57.00 | 178833 | 219107
6 | 48:41.33 | 5:14.00 | 219108 | 242657
Range status and errors
Selected range
Filename F:\z\Arcado - Behind the Myth.wav
Peak level 64.1 %
Range quality 100.0 %
Copy CRC 790E7102
Copy OK
No errors occurred
AccurateRip summary
Track 1 not present in database
Track 2 not present in database
Track 3 not present in database
Track 4 not present in database
Track 5 not present in database
Track 6 not present in database
None of the tracks are present in the AccurateRip database
End of status report

Приватный:
Нет (DHT включён)
Размер:
206.65 Мб (216,684,745 байт) » файлов: 5
Участники:
0 раздают, 0 качают (0 участников всего)
Внешние участники:
1 раздают, 0 качают (1 участников всего) [ Обновить ]
No seeders - write a personal message to user M0p94ok. Нет сидеров - пишите личное сообщение пользователю M0p94ok.
03:06
63
Нет комментариев. Ваш будет первым!