Поиск

(Avant-Garde, Afro-Cuban, Acoustic) Marc Ribot - Plays Solo Guitar Works By Frantz Casseus - 1993, FLAC (tracks+.cue), lossless

(Avant-Garde, Afro-Cuban, Acoustic) Marc Ribot - Plays Solo Guitar Works By Frantz Casseus - 1993, FLAC (tracks+.cue), lossless
Треклист:
Marc Ribot - Plays Solo Guitar Works By Frantz Casseus
Жанр: Avant-Garde, Afro-Cuban, Acoustic
Год выпуска диска: 1993
Производитель диска: Belgium / Les Disques du Crépuscule (TWI 979-2)
Аудио кодек: FLAC
Тип рипа: tracks+.cue
Битрейт аудио: lossless
Продолжительность: 48:23
Трэклист:
1 Simbi (3:33)
2 Rara (1:44)
3 Prelude #2 (1:08)
4 Haitian Suite - Petro (4:08)
5 Haitian Suite - Yanvalloux (3:04)
6 Haitian Suite - Mascaron (3:48)
7 Haitian Suite - Coumbite (Merci Bon Dieu) (3:18)
8 Prelude #1 (1:03)
9 Merengue (1:31)
10 Improvisation (1:35)
11 Chanson (1:52)
12 Congo (3:16)
13 Dance (On Sunday) (3:16)
14 Serenade Lointaine (2:27)
15 Valse (4:13)
16 Untitled (1:40)
17 Romance (2:04)
18 Dance of the Hounsies (2:51)
19 Romance 1978 (1:43)
Acoustic Guitar [Spanish Guitar] - Marc Ribot
Composed By - Frantz Casseus
Доп. информация:
 
EAC log
Exact Audio Copy V0.99 prebeta 4 from 23. January 2008
EAC extraction logfile from 26. February 2009, 10:19
Marc Ribot / Plays solo guitar works of Frantz Casseus
Used drive : PLDS DVD+-RW DH-16A6S Adapter: 1 ID: 0
Read mode : Secure
Utilize accurate stream : Yes
Defeat audio cache : Yes
Make use of C2 pointers : No
Read offset correction : 6
Overread into Lead-In and Lead-Out : No
Fill up missing offset samples with silence : Yes
Delete leading and trailing silent blocks : No
Null samples used in CRC calculations : Yes
Used interface : Native Win32 interface for Win NT & 2000
Gap handling : Appended to previous track
Used output format : User Defined Encoder
Selected bitrate : 192 kBit/s
Quality : High
Add ID3 tag : No
Command line compressor : C:\Program Files\Exact Audio Copy\Flac\flac.exe
Additional command line options : -V -8 -T "artist=%a" -T "title=%t" -T "album=%g" -T "date=%y" -T "tracknumber=%n" -T "genre=%m" %s
TOC of the extracted CD
Track | Start | Length | Start sector | End sector
---------------------------------------------------------
1 | 0:00.00 | 3:33.30 | 0 | 16004
2 | 3:33.30 | 1:44.45 | 16005 | 23849
3 | 5:18.00 | 1:08.20 | 23850 | 28969
4 | 6:26.20 | 4:08.25 | 28970 | 47594
5 | 10:34.45 | 3:04.70 | 47595 | 61464
6 | 13:39.40 | 3:48.62 | 61465 | 78626
7 | 17:28.27 | 3:18.00 | 78627 | 93476
8 | 20:46.27 | 1:03.38 | 93477 | 98239
9 | 21:49.65 | 1:31.55 | 98240 | 105119
10 | 23:21.45 | 1:35.52 | 105120 | 112296
11 | 24:57.22 | 1:52.55 | 112297 | 120751
12 | 26:50.02 | 3:16.15 | 120752 | 135466
13 | 30:06.17 | 3:16.53 | 135467 | 150219
14 | 33:22.70 | 2:27.10 | 150220 | 161254
15 | 35:50.05 | 4:13.20 | 161255 | 180249
16 | 40:03.25 | 1:40.35 | 180250 | 187784
17 | 41:43.60 | 2:04.65 | 187785 | 197149
18 | 43:48.50 | 2:51.22 | 197150 | 209996
19 | 46:39.72 | 1:43.33 | 209997 | 217754
Track 1
Filename C:\EAC Rips\FLAC\01 - Marc Ribot - Simbi.wav
Pre-gap length 0:00:02.00
Peak level 52.4 %
Track quality 100.0 %
Test CRC 3A60B80E
Copy CRC 3A60B80E
Track not present in AccurateRip database
Copy OK
Track 2
Filename C:\EAC Rips\FLAC\02 - Marc Ribot - Rara.wav
Peak level 53.4 %
Track quality 99.8 %
Test CRC 3671D73A
Copy CRC 3671D73A
Track not present in AccurateRip database
Copy OK
Track 3
Filename C:\EAC Rips\FLAC\03 - Marc Ribot - Prelude #2.wav
Peak level 28.2 %
Track quality 100.0 %
Test CRC 64ABEF54
Copy CRC 64ABEF54
Track not present in AccurateRip database
Copy OK
Track 4
Filename C:\EAC Rips\FLAC\04 - Marc Ribot - Petro.wav
Peak level 40.7 %
Track quality 100.0 %
Test CRC C1FB20FF
Copy CRC C1FB20FF
Track not present in AccurateRip database
Copy OK
Track 5
Filename C:\EAC Rips\FLAC\05 - Marc Ribot - Yanvalloux.wav
Pre-gap length 0:00:01.58
Peak level 25.4 %
Track quality 99.9 %
Test CRC 72E55276
Copy CRC 72E55276
Track not present in AccurateRip database
Copy OK
Track 6
Filename C:\EAC Rips\FLAC\06 - Marc Ribot - Mascaron.wav
Pre-gap length 0:00:01.18
Peak level 42.7 %
Track quality 100.0 %
Test CRC 66EFF8F9
Copy CRC 66EFF8F9
Track not present in AccurateRip database
Copy OK
Track 7
Filename C:\EAC Rips\FLAC\07 - Marc Ribot - Coumbite (Merci Bon Dieu).wav
Pre-gap length 0:00:01.45
Peak level 43.5 %
Track quality 100.0 %
Test CRC 2A8E5903
Copy CRC 2A8E5903
Track not present in AccurateRip database
Copy OK
Track 8
Filename C:\EAC Rips\FLAC\08 - Marc Ribot - Prelude #1.wav
Pre-gap length 0:00:01.47
Peak level 33.4 %
Track quality 100.0 %
Test CRC 7A34428A
Copy CRC 7A34428A
Track not present in AccurateRip database
Copy OK
Track 9
Filename C:\EAC Rips\FLAC\09 - Marc Ribot - Merengue.wav
Pre-gap length 0:00:01.10
Peak level 71.8 %
Track quality 100.0 %
Test CRC 76260056
Copy CRC 76260056
Track not present in AccurateRip database
Copy OK
Track 10
Filename C:\EAC Rips\FLAC\10 - Marc Ribot - Improvisation.wav
Pre-gap length 0:00:03.08
Peak level 44.2 %
Track quality 100.0 %
Test CRC DD36BBB5
Copy CRC DD36BBB5
Track not present in AccurateRip database
Copy OK
Track 11
Filename C:\EAC Rips\FLAC\11 - Marc Ribot - Chanson.wav
Pre-gap length 0:00:02.57
Peak level 37.1 %
Track quality 100.0 %
Test CRC 5F363104
Copy CRC 5F363104
Track not present in AccurateRip database
Copy OK
Track 12
Filename C:\EAC Rips\FLAC\12 - Marc Ribot - Congo.wav
Pre-gap length 0:00:01.52
Peak level 48.9 %
Track quality 100.0 %
Test CRC 6BE7FFFB
Copy CRC 6BE7FFFB
Track not present in AccurateRip database
Copy OK
Track 13
Filename C:\EAC Rips\FLAC\13 - Marc Ribot - Dance (On Sunday).wav
Pre-gap length 0:00:02.00
Peak level 50.2 %
Track quality 100.0 %
Test CRC 587CEE91
Copy CRC 587CEE91
Track not present in AccurateRip database
Copy OK
Track 14
Filename C:\EAC Rips\FLAC\14 - Marc Ribot - Serenade Lointaine.wav
Pre-gap length 0:00:01.20
Peak level 37.1 %
Track quality 100.0 %
Test CRC E3D8F213
Copy CRC E3D8F213
Track not present in AccurateRip database
Copy OK
Track 15
Filename C:\EAC Rips\FLAC\15 - Marc Ribot - Valse.wav
Pre-gap length 0:00:01.45
Peak level 45.3 %
Track quality 100.0 %
Test CRC E6CD4FC6
Copy CRC E6CD4FC6
Track not present in AccurateRip database
Copy OK
Track 16
Filename C:\EAC Rips\FLAC\16 - Marc Ribot - Untitled.wav
Pre-gap length 0:00:01.65
Peak level 51.3 %
Track quality 100.0 %
Test CRC DAFFC31C
Copy CRC DAFFC31C
Track not present in AccurateRip database
Copy OK
Track 17
Filename C:\EAC Rips\FLAC\17 - Marc Ribot - Romance.wav
Pre-gap length 0:00:02.10
Peak level 29.4 %
Track quality 99.9 %
Test CRC 57262C08
Copy CRC 57262C08
Track not present in AccurateRip database
Copy OK
Track 18
Filename C:\EAC Rips\FLAC\18 - Marc Ribot - Dance Of The Hounsies.wav
Pre-gap length 0:00:01.43
Peak level 51.0 %
Track quality 100.0 %
Test CRC 2A40D085
Copy CRC 2A40D085
Track not present in AccurateRip database
Copy OK
Track 19
Filename C:\EAC Rips\FLAC\19 - Marc Ribot - Romance 1978.wav
Pre-gap length 0:00:02.40
Peak level 29.3 %
Track quality 100.0 %
Test CRC CADF8B17
Copy CRC CADF8B17
Track not present in AccurateRip database
Copy OK
None of the tracks are present in the AccurateRip database
No errors occurred
End of status report
07:10
293
Нет комментариев. Ваш будет первым!