Поиск

(ambient-noise, ancient klezmer, freak's vomit, Tzadik Radical Jewish Culture) Mystic Fugu Orchestra (John Zorn & Yamantaka Eye) - Zohar - 1995, FLAC (image + .cue), lossless

(ambient-noise, ancient klezmer, freak's vomit, Tzadik Radical Jewish Culture) Mystic Fugu Orchestra (John Zorn & Yamantaka Eye) - Zohar - 1995, FLAC (image + .cue), lossless
Треклист:
Mystic Fugu Orchestra (John Zorn & Yamantaka Eye) - Zohar
Страна: USA / Japan
Жанр: ambient-noise, ancient klezmer, freak's vomit, Tzadik Radical Jewish Culture
Год выпуска: 1995
Формат: FLAC (image + .cue)
Битрейт аудио: lossless
Продолжительность: 23:39
Трэклист:
1. Alef
2. Book of Splendors
3. Frog Doyna
4. The Dybbuk
5. 2000 Years
6. Goniff Dance
7. Rov Nova
8. Zayin
Доп. информация: Rav Yechida (aka Yamantaka Eye) - Voice
Rav Tzizit (aka John Zorn) - Harmonium
 
скрытый текст
"From the inventive minds of John Zorn and Yamantaka Eye comes an intimate and highly original duo project inspired by historical recordings of ancient Judaica. The Mystic Fugu Orchestra masquerades as "newly discovered" recordings from the Mystical tradition of Kabbalah - paralleling 14th century author Moses de Leon's original presentation of of his Kabbalistic classic "The Zohar" or "Book of Splendors" as having been discovered by him and actually written by Rabbi Simeon ben Yohai centuries before. Humorous, touching, traditional, irreverent, perplexing, soulful. A sound that could only come about with years of friendship, empathy and collaboration, The Mystic Fugu Orchestra will surprise and delight you as yet another unusual direction in music from these two masters of the unexpected." - Tzadik Press Release
 
Отчет EAC
Exact Audio Copy V0.99 prebeta 4 from 23. January 2008
Отчёт EAC об извлечении, выполненном 15. мая 2008, 20:00
Mystic Fugu Orchestra / Zohar
Дисковод: Optiarc DVD RW AD-7170A Adapter: 0 ID: 1
Режим чтения : Достоверность
Использование точного потока : Да
Отключение кэша аудио : Да
Использование указателей C2 : Нет
Коррекция смещения при чтении : 48
Способность читать области Lead-in и Lead-out : Нет
Заполнение пропущенных сэмплов тишиной : Да
Удаление блоков с тишиной в начале и конце : Нет
При вычислениях CRC использовались нулевые сэмплы : Нет
Интерфейс : Встроенный Win32-интерфейс для Win NT/2000
Выходной формат : Пользовательский кодировщик
Выбранный битрейт : 768 kBit/s
Качество : Высокий
Добавление ID3-тэга : Нет
Утилита сжатия : C:\Program Files\Exact Audio Copy\FLAC\FLAC.EXE
Дополнительные параметры : -6 -V -T "ARTIST=%a" -T "TITLE=%t" -T "ALBUM=%g" -T "DATE=%y" -T "TRACKNUMBER=%n" -T "GENRE=%m" -T "COMMENT=%e" %s -o %d
TOC извлечённого CD
Трек | Старт | Длительность | Начальный сектор | Конечный сектор
---------------------------------------------------------------------
1 | 0:00.00 | 0:40.32 | 0 | 3031
2 | 0:40.32 | 3:48.33 | 3032 | 20164
3 | 4:28.65 | 2:02.00 | 20165 | 29314
4 | 6:30.65 | 2:28.27 | 29315 | 40441
5 | 8:59.17 | 0:59.68 | 40442 | 44934
6 | 9:59.10 | 2:17.15 | 44935 | 55224
7 | 12:16.25 | 7:44.40 | 55225 | 90064
8 | 20:00.65 | 3:37.35 | 90065 | 106374
Характеристики диапазона извлечения и сообщения об ошибках
Выбранный диапазон
Имя файла C:\Music\Mystic Fugu Orchestra - Zohar.wav
Пиковый уровень 100.0 %
Качество диапазона 99.9 %
CRC копии F059E11C
Копирование... OK
Ошибок не произошло
AccurateRip: сводка
Трек 1 нет в базе данных
Трек 2 нет в базе данных
Трек 3 нет в базе данных
Трек 4 нет в базе данных
Трек 5 нет в базе данных
Трек 6 нет в базе данных
Трек 7 нет в базе данных
Трек 8 нет в базе данных
Ни одного трека нет в базе AccurateRip
Конец отчёта
01:16
284
Нет комментариев. Ваш будет первым!