Вы используете незарегистрированную версию компонента "Вкладки"!

Поиск

(Alternative Rock, Experimental, Free Improvisation) Monstrance (Andy Partridge, Barry Andrews, Martyn Barker) - Monstrance (2CD) - 2007, FLAC (tracks+.cue), lossless

(Alternative Rock, Experimental, Free Improvisation) Monstrance (Andy Partridge, Barry Andrews, Martyn Barker) - Monstrance (2CD) - 2007, FLAC (tracks+.cue), lossless
Треклист:
Monstrance (Andy Partridge, Barry Andrews, Martyn Barker) / Monstrance (2CD)
Жанр: Alternative Rock, Experimental, Free Improvisation
Страна-производитель диска: UK
Год издания: 2007
Издатель (лейбл): Ape House
Номер по каталогу: APE CD 017
Страна: UK
Аудиокодек: FLAC (*.flac)
Тип рипа: tracks+.cue
Битрейт аудио: lossless
Продолжительность: 44:50 + 44:44
Источник (релизер): свой фирменный диск
Наличие сканов в содержимом раздачи: нет
Треклист:
 
CD1
1 I Lovely Cosmonaut 10:35
2 Winterwerk 3:54
3 Black Swan Black 12:41
4 Mig 4:11
5 Oodoo 5:24
6 Ur Tannoy 5:04
7 Little Field 3:03
 
CD2
1 Pagoda Tailfin 11:32
2 Chaingang 4:42
3 Torturetainment 7:21
4 The Floating World 4:10
5 Priapple 16:58
 
Лог создания рипа

 
CD1
Exact Audio Copy V1.0 beta 2 from 29. April 2011
EAC extraction logfile from 24. October 2012, 18:50
Monstrance / Monstrance (disc 1)
Used drive : PIONEER DVD-RW DVR-115D Adapter: 0 ID: 0
Read mode : Secure
Utilize accurate stream : Yes
Defeat audio cache : Yes
Make use of C2 pointers : No
Read offset correction : 48
Overread into Lead-In and Lead-Out : No
Fill up missing offset samples with silence : Yes
Delete leading and trailing silent blocks : No
Null samples used in CRC calculations : Yes
Used interface : Installed external ASPI interface
Gap handling : Appended to previous track
Used output format : User Defined Encoder
Selected bitrate : 896 kBit/s
Quality : High
Add ID3 tag : No
Command line compressor : C:\Program Files\Exact Audio Copy\FLAC\FLAC.EXE
Additional command line options : -6 -V -T "ARTIST=%artist%" -T "TITLE=%title%" -T "ALBUM=%albumtitle%" -T "DATE=%year%" -T "TRACKNUMBER=%tracknr%" -T "GENRE=%genre%" -T "COMMENT=%comment%" -T "BAND=%albuminterpret%" -T "COMPOSER=%composer%" %haslyrics%--ta
TOC of the extracted CD
Track | Start | Length | Start sector | End sector
---------------------------------------------------------
1 | 0:00.00 | 10:30.11 | 0 | 47260
2 | 10:30.11 | 3:54.53 | 47261 | 64863
3 | 14:24.64 | 12:41.00 | 64864 | 121938
4 | 27:05.64 | 4:11.41 | 121939 | 140804
5 | 31:17.30 | 5:24.53 | 140805 | 165157
6 | 36:42.08 | 5:04.51 | 165158 | 188008
7 | 41:46.59 | 3:03.54 | 188009 | 201787
Track 1
Filename D:\zzz\01 - I Lovely Cosmonaut.wav
Pre-gap length 0:00:02.00
Peak level 98.9 %
Extraction speed 4.8 X
Track quality 99.9 %
Test CRC DB2E99FA
Copy CRC DB2E99FA
Accurately ripped (confidence 10) [A09E9D22] (AR v1)
Copy OK
Track 2
Filename D:\zzz\02 - Winterwerk.wav
Pre-gap length 0:00:00.61
Peak level 99.1 %
Extraction speed 4.7 X
Track quality 99.9 %
Test CRC 88E69A14
Copy CRC 88E69A14
Accurately ripped (confidence 10) [86CBC67C] (AR v1)
Copy OK
Track 3
Filename D:\zzz\03 - Black Swan Black.wav
Peak level 98.9 %
Extraction speed 6.7 X
Track quality 100.0 %
Test CRC 9179187D
Copy CRC 9179187D
Accurately ripped (confidence 10) [7FB8E6DA] (AR v1)
Copy OK
Track 4
Filename D:\zzz\04 - Mig.wav
Peak level 98.9 %
Extraction speed 6.7 X
Track quality 100.0 %
Test CRC 9985629C
Copy CRC 9985629C
Accurately ripped (confidence 10) [932F6C19] (AR v1)
Copy OK
Track 5
Filename D:\zzz\05 - Oodoo.wav
Peak level 81.3 %
Extraction speed 6.6 X
Track quality 99.9 %
Test CRC 3386011B
Copy CRC 3386011B
Accurately ripped (confidence 10) [74A53379] (AR v1)
Copy OK
Track 6
Filename D:\zzz\06 - Ur Tannoy.wav
Peak level 98.9 %
Extraction speed 7.5 X
Track quality 100.0 %
Test CRC 0C0CE128
Copy CRC 0C0CE128
Accurately ripped (confidence 10) [8C4AD157] (AR v1)
Copy OK
Track 7
Filename D:\zzz\07 - Little Field.wav
Pre-gap length 0:00:05.12
Peak level 66.8 %
Extraction speed 7.2 X
Track quality 100.0 %
Test CRC 137CBDB1
Copy CRC 137CBDB1
Accurately ripped (confidence 10) [F591CFCC] (AR v1)
Copy OK
All tracks accurately ripped
No errors occurred
End of status report
==== Log checksum 1F36EFB5921A3FE07EEA1307B047A757B529B5015B7A23620C32698F73E31B4E ====
 
CD2
Exact Audio Copy V1.0 beta 2 from 29. April 2011
EAC extraction logfile from 24. October 2012, 19:20
Monstrance / Monstrance (disc 2)
Used drive : PIONEER DVD-RW DVR-115D Adapter: 0 ID: 0
Read mode : Secure
Utilize accurate stream : Yes
Defeat audio cache : Yes
Make use of C2 pointers : No
Read offset correction : 48
Overread into Lead-In and Lead-Out : No
Fill up missing offset samples with silence : Yes
Delete leading and trailing silent blocks : No
Null samples used in CRC calculations : Yes
Used interface : Installed external ASPI interface
Gap handling : Appended to previous track
Used output format : User Defined Encoder
Selected bitrate : 896 kBit/s
Quality : High
Add ID3 tag : No
Command line compressor : C:\Program Files\Exact Audio Copy\FLAC\FLAC.EXE
Additional command line options : -6 -V -T "ARTIST=%artist%" -T "TITLE=%title%" -T "ALBUM=%albumtitle%" -T "DATE=%year%" -T "TRACKNUMBER=%tracknr%" -T "GENRE=%genre%" -T "COMMENT=%comment%" -T "BAND=%albuminterpret%" -T "COMPOSER=%composer%" %haslyrics%--ta
TOC of the extracted CD
Track | Start | Length | Start sector | End sector
---------------------------------------------------------
1 | 0:00.00 | 11:32.01 | 0 | 51900
2 | 11:32.01 | 4:42.10 | 51901 | 73060
3 | 16:14.11 | 7:21.14 | 73061 | 106149
4 | 23:35.25 | 4:10.66 | 106150 | 124965
5 | 27:46.16 | 16:57.74 | 124966 | 201314
Track 1
Filename D:\zzz\01 - Pagoda Tailfin.wav
Pre-gap length 0:00:02.00
Peak level 88.1 %
Extraction speed 5.2 X
Track quality 100.0 %
Test CRC 80DEECFB
Copy CRC 80DEECFB
Accurately ripped (confidence 10) [3D218A24] (AR v1)
Copy OK
Track 2
Filename D:\zzz\02 - Chaingang.wav
Peak level 98.9 %
Extraction speed 5.6 X
Track quality 100.0 %
Test CRC DA3563B7
Copy CRC DA3563B7
Accurately ripped (confidence 10) [57293905] (AR v1)
Copy OK
Track 3
Filename D:\zzz\03 - Torturetainment.wav
Peak level 100.0 %
Extraction speed 6.0 X
Track quality 99.9 %
Test CRC 91788F37
Copy CRC 91788F37
Accurately ripped (confidence 10) [74BE3879] (AR v1)
Copy OK
Track 4
Filename D:\zzz\04 - The Floating World.wav
Peak level 40.3 %
Extraction speed 6.5 X
Track quality 100.0 %
Test CRC 76956F35
Copy CRC 76956F35
Accurately ripped (confidence 10) [980CDD0F] (AR v1)
Copy OK
Track 5
Filename D:\zzz\05 - Priapple.wav
Peak level 100.0 %
Extraction speed 7.9 X
Track quality 100.0 %
Test CRC FDA0C33E
Copy CRC FDA0C33E
Accurately ripped (confidence 10) [B61A510A] (AR v1)
Copy OK
All tracks accurately ripped
No errors occurred
End of status report
==== Log checksum D6E1D231D788A33634E29ADAA33ACD1D9671226AB0214DE7B50B7234924405E5 ====
 
Содержание индексной карты (.CUE)

 
CD1
REM GENRE improv
REM DATE 2007
REM DISCID 610A8207
REM COMMENT "ExactAudioCopy v1.0b2"
PERFORMER "Monstrance"
TITLE "Monstrance (disc 1)"
FILE "01 - I Lovely Cosmonaut.wav" WAVE
TRACK 01 AUDIO
TITLE "I Lovely Cosmonaut"
PERFORMER "Monstrance"
INDEX 01 00:00:00
TRACK 02 AUDIO
TITLE "Winterwerk"
PERFORMER "Monstrance"
INDEX 00 10:29:25
FILE "02 - Winterwerk.wav" WAVE
INDEX 01 00:00:00
FILE "03 - Black Swan Black.wav" WAVE
TRACK 03 AUDIO
TITLE "Black Swan Black"
PERFORMER "Monstrance"
INDEX 01 00:00:00
FILE "04 - Mig.wav" WAVE
TRACK 04 AUDIO
TITLE "Mig"
PERFORMER "Monstrance"
INDEX 01 00:00:00
FILE "05 - Oodoo.wav" WAVE
TRACK 05 AUDIO
TITLE "Oodoo"
PERFORMER "Monstrance"
INDEX 01 00:00:00
FILE "06 - Ur Tannoy.wav" WAVE
TRACK 06 AUDIO
TITLE "Ur Tannoy"
PERFORMER "Monstrance"
INDEX 01 00:00:00
TRACK 07 AUDIO
TITLE "Little Field"
PERFORMER "Monstrance"
INDEX 00 04:59:39
FILE "07 - Little Field.wav" WAVE
INDEX 01 00:00:00
 
CD2
REM GENRE improv
REM DATE 2007
REM DISCID 4D0A7C05
REM COMMENT "ExactAudioCopy v1.0b2"
PERFORMER "Monstrance"
TITLE "Monstrance (disc 2)"
FILE "01 - Pagoda Tailfin.wav" WAVE
TRACK 01 AUDIO
TITLE "Pagoda Tailfin"
PERFORMER "Monstrance"
INDEX 01 00:00:00
FILE "02 - Chaingang.wav" WAVE
TRACK 02 AUDIO
TITLE "Chaingang"
PERFORMER "Monstrance"
INDEX 01 00:00:00
FILE "03 - Torturetainment.wav" WAVE
TRACK 03 AUDIO
TITLE "Torturetainment"
PERFORMER "Monstrance"
INDEX 01 00:00:00
FILE "04 - The Floating World.wav" WAVE
TRACK 04 AUDIO
TITLE "The Floating World"
PERFORMER "Monstrance"
INDEX 01 00:00:00
FILE "05 - Priapple.wav" WAVE
TRACK 05 AUDIO
TITLE "Priapple"
PERFORMER "Monstrance"
INDEX 01 00:00:00
 
Лог проверки качества
d:\>d:\aucdtect -d/-m0 d:\zzz\*.wav
auCDtect: CD records authenticity detector, version 0.8.2
Copyright (c) 2004 Oleg Berngardt. All rights reserved.
Copyright (c) 2004 Alexander Djourik. All rights reserved.
------------------------------------------------------------
Processing file: [01. I Lovely Cosmonaut.wav]
------------------------------------------------------------
This track looks like CDDA with probability 100%
------------------------------------------------------------
Processing file: [01. Pagoda Tailfin.wav]
------------------------------------------------------------
This track looks like MPEG with probability 93%
------------------------------------------------------------
Processing file: [02. Chaingang.wav]
------------------------------------------------------------
This track looks like CDDA with probability 100%
------------------------------------------------------------
Processing file: [02. Winterwerk.wav]
------------------------------------------------------------
This track looks like CDDA with probability 94%
------------------------------------------------------------
Processing file: [03. Black Swan Black.wav]
------------------------------------------------------------
This track looks like CDDA with probability 99%
------------------------------------------------------------
Processing file: [03. Torturetainment.wav]
------------------------------------------------------------
This track looks like CDDA with probability 100%
------------------------------------------------------------
Processing file: [04. Mig.wav]
------------------------------------------------------------
This track looks like CDDA with probability 100%
------------------------------------------------------------
Processing file: [04. The Floating World.wav]
------------------------------------------------------------
This track looks like MPEG with probability 100%
------------------------------------------------------------
Processing file: [05. Oodoo.wav]
------------------------------------------------------------
This track looks like MPEG with probability 91%
------------------------------------------------------------
Processing file: [05. Priapple.wav]
------------------------------------------------------------
This track looks like CDDA with probability 92%
------------------------------------------------------------
Processing file: [06. Ur Tannoy.wav]
------------------------------------------------------------
This track looks like CDDA with probability 100%
------------------------------------------------------------
Processing file: [07. Little Field.wav]
------------------------------------------------------------
This track looks like CDDA with probability 100%
------------------------------------------------------------
Final Conclusion:
------------------------------------------------------------
Could not qualify the source of these tracks.
Доп. информация:
 
Album Info
"This music was improvised and recorded live in the Headroom Studio at Swindon New College on the 17th December 2005, and the 13th and 14th February 2006. There was no rehearsal or discussion about key, tempo or feel and no overdubbing; It just came out like this"
Monstrance is the name given to a trio comprised of XTC's resident guitarist, songwriter, and figurehead Andy Partridge; Shriekback keyboardist (and way-back XTC member) Barry Andrews; and drummer Martyn Barker, also of Shriekback. Any expectations that the self-titled Monstrance might sound like either of those venerable outfits can be tossed right out the window, though. This is two discs of purely improvisational music: no overdubs, no composition or rehearsal -- just three exceptional musicians heading into the studio and playing what their minds and hands tell them to, with little regard for accessibility, form, or mood. One might expect it to resemble free jazz, and Partridge has made no secret of his affection for same. But Monstrance sound nothing like Ornette Coleman or Cecil Taylor either. Like free jazz, it's often difficult music -- no place more so than the lengthy, meandering, tentative opening track, "I Lovely Cosmonaut" -- but stick it out and accept it on its own terms, and it bears more riches than it has a right to. That is, when it doesn't get mired in its own muck, unable to find a way out. Monstrance, for better and worse, never stays in one place for long. "Ur Tannoy" is a screech-fest of explosive noise, swirling, cacophonic bursts of feedback, roiling drums, and hypnotic (OK, annoying) loops. "Tagoda Tailfin" is faux ambient, suggestive of, though not really akin to, Partridge's 1994 collaboration with Harold Budd, Through the Hill. But where that music was composed and manicured, this is freewheeling and often out of control -- exhilarating at times, compelling, but undeniably indulgent, too. "Torturetainment" -- great evocative title, that -- not unpredictably, filters from metallic/prog rocky to vaguely soothing, while the album-closing "Priapple," 16 minutes of noodling in search of a song, feels like an abandoned soundtrack to a B horror flick. Will die-hard XTC fans take to it? That depends on whether they come to XTC for the band's quirky, angular pop and Partridge's finely crafted songs or for that seemingly now-defunct band's more experimental, edgy efforts. Suffice to say if it's solely for the former, this lengthy exercise in free-form won't win their hearts. Shriekback people will feel the funk, but shouldn't expect Monstrance to incite them to dance. In the end, only those with a great tolerance for ambling, off-the-cuff music-making will likely take the ride all the way through. Monstrance -- though there is no denying the intelligence and probing inquisitiveness that went into it -- is not for casual listening, it's not party music, and it isn't a whole lot of fun. But stick with it, give it a chance to take hold, really pay attention, open up, and as the music finds its way deep within your cranium you may just find yourself marveling at its nuanced shifts, inspired sound clashes, and ability to challenge its own makers at every turn. (allmusic.com)
 
Состав
Drums, Percussion – Martyn Barker
Guitar – Andy Partridge
Keyboards – Barry Andrews
Any questions -> support@pro-jazz.com. По всем вопросам пишите -> support@pro-jazz.com
04:34
201
Нет комментариев. Ваш будет первым!