Поиск

(Afrobeat, World Fusion) Antibalas - Talkatif - 2002, FLAC (tracks+.cue), lossless

Треклист:
Antibalas / Talkatif
Жанр: Afrobeat, World Fusion
Страна-производитель диска: UK
Год издания диска: 2002
Издатель (лейбл): Ninja Tune
Номер по каталогу: ZENCD66
Страна: UK
Аудиокодек: FLAC (*.flac)
Тип рипа: tracks+.cue
Битрейт аудио: lossless
Продолжительность: 40:56
Источник (релизер): waffles.fm
Наличие сканов в содержимом раздачи: нет
Треклист:
1 Gabe's New Joint 4:17
2 Talkatif 9:36
3 Hypocrite 5:06
4 World Without Fear 2:54
5 War Is A Crime 7:55
6 Nyash 7:01
7 N.E.S.T.A. 75 4:05
 
Лог создания рипа
Exact Audio Copy V1.0 beta 1 from 15. November 2010
EAC extraction logfile from 5. March 2011, 13:37
Antibalas / Talkatif
Used drive : PBDS DVD+-RW DS-8W1P Adapter: 0 ID: 0
Read mode : Secure
Utilize accurate stream : Yes
Defeat audio cache : Yes
Make use of C2 pointers : No
Read offset correction : 594
Overread into Lead-In and Lead-Out : No
Fill up missing offset samples with silence : Yes
Delete leading and trailing silent blocks : No
Null samples used in CRC calculations : Yes
Used interface : Native Win32 interface for Win NT & 2000
Gap handling : Appended to previous track
Used output format : User Defined Encoder
Selected bitrate : 128 kBit/s
Quality : High
Add ID3 tag : No
Command line compressor : C:\Program Files\Exact Audio Copy\Flac\flac.exe
Additional command line options : -V -8 -T "artist=%a" -T "title=%t" -T "album=%g" -T "date=%y" -T "tracknumber=%n" -T "genre=%m" %s
TOC of the extracted CD
Track | Start | Length | Start sector | End sector
---------------------------------------------------------
1 | 0:00.00 | 4:18.02 | 0 | 19351
2 | 4:18.02 | 9:36.10 | 19352 | 62561
3 | 13:54.12 | 5:06.08 | 62562 | 85519
4 | 19:00.20 | 2:54.07 | 85520 | 98576
5 | 21:54.27 | 7:55.18 | 98577 | 134219
6 | 29:49.45 | 7:01.37 | 134220 | 165831
7 | 36:51.07 | 4:05.23 | 165832 | 184229
Track 1
Filename G:\Music Files\Waffle\01-Gabe's New Joint.wav
Pre-gap length 0:00:02.00
Peak level 98.3 %
Extraction speed 1.0 X
Track quality 99.9 %
Test CRC A84FDB79
Copy CRC A84FDB79
Accurately ripped (confidence 4) [B6BE64F4]
Copy OK
Track 2
Filename G:\Music Files\Waffle\02-Talkatif.wav
Pre-gap length 0:00:06.73
Peak level 98.8 %
Extraction speed 1.2 X
Track quality 99.9 %
Test CRC 655238BF
Copy CRC 655238BF
Accurately ripped (confidence 4) [D0509B41]
Copy OK
Track 3
Filename G:\Music Files\Waffle\03-Hypocrite.wav
Pre-gap length 0:00:04.49
Peak level 98.3 %
Extraction speed 1.4 X
Track quality 100.0 %
Test CRC C310DD3B
Copy CRC C310DD3B
Accurately ripped (confidence 4) [C0F5D9E2]
Copy OK
Track 4
Filename G:\Music Files\Waffle\04-World without Fear.wav
Pre-gap length 0:00:04.46
Peak level 97.0 %
Extraction speed 1.3 X
Track quality 100.0 %
Test CRC C8980F80
Copy CRC C8980F80
Accurately ripped (confidence 4) [C821CBDD]
Copy OK
Track 5
Filename G:\Music Files\Waffle\05-War Is a Crime.wav
Pre-gap length 0:00:06.42
Peak level 98.5 %
Extraction speed 1.6 X
Track quality 100.0 %
Test CRC 6AF27DAD
Copy CRC 6AF27DAD
Accurately ripped (confidence 4) [4B559E5F]
Copy OK
Track 6
Filename G:\Music Files\Waffle\06-NYASH.wav
Pre-gap length 0:00:05.90
Peak level 98.6 %
Extraction speed 1.7 X
Track quality 100.0 %
Test CRC 6AD8459C
Copy CRC 6AD8459C
Accurately ripped (confidence 4) [EFC972FC]
Copy OK
Track 7
Filename G:\Music Files\Waffle\07-N.E.S.T.A 75.wav
Pre-gap length 0:00:02.46
Peak level 98.6 %
Extraction speed 1.7 X
Track quality 100.0 %
Test CRC F429248F
Copy CRC F429248F
Accurately ripped (confidence 4) [E726E5BF]
Copy OK
All tracks accurately ripped
No errors occurred
End of status report
==== Log checksum 85842C16C74C9F0A70955D8F7C19E6E0CB4E07719F6BF3C4FA273921969AF1C9 ====
 
Содержание индексной карты (.CUE)
REM GENRE AfroBeat
REM DATE 2002
REM DISCID 48099807
REM COMMENT "ExactAudioCopy v1.0b1"
PERFORMER "Antibalas"
TITLE "Talkatif"
FILE "01-Gabe's New Joint.wav" WAVE
TRACK 01 AUDIO
TITLE "Gabe's New Joint"
PERFORMER "Antibalas"
INDEX 01 00:00:00
TRACK 02 AUDIO
TITLE "Talkatif"
PERFORMER "Antibalas"
INDEX 00 04:11:22
FILE "02-Talkatif.wav" WAVE
INDEX 01 00:00:00
TRACK 03 AUDIO
TITLE "Hypocrite"
PERFORMER "Antibalas"
INDEX 00 09:31:48
FILE "03-Hypocrite.wav" WAVE
INDEX 01 00:00:00
TRACK 04 AUDIO
TITLE "World without Fear"
PERFORMER "Antibalas"
INDEX 00 05:01:48
FILE "04-World without Fear.wav" WAVE
INDEX 01 00:00:00
TRACK 05 AUDIO
TITLE "War Is a Crime"
PERFORMER "Antibalas"
INDEX 00 02:47:50
FILE "05-War Is a Crime.wav" WAVE
INDEX 01 00:00:00
TRACK 06 AUDIO
TITLE "NYASH"
PERFORMER "Antibalas"
INDEX 00 07:49:25
FILE "06-NYASH.wav" WAVE
INDEX 01 00:00:00
TRACK 07 AUDIO
TITLE "N.E.S.T.A 75"
PERFORMER "Antibalas"
INDEX 00 06:59:02
FILE "07-N.E.S.T.A 75.wav" WAVE
INDEX 01 00:00:00
 
Лог проверки качества
d:\>d:\aucdtect -d/-m0 d:\zzz\*.wav
auCDtect: CD records authenticity detector, version 0.8.2
Copyright (c) 2004 Oleg Berngardt. All rights reserved.
Copyright (c) 2004 Alexander Djourik. All rights reserved.
------------------------------------------------------------
Processing file: [01. Gabe's New Joint.wav]
------------------------------------------------------------
This track looks like CDDA with probability 100%
------------------------------------------------------------
Processing file: [02. Talkatif.wav]
------------------------------------------------------------
This track looks like CDDA with probability 100%
------------------------------------------------------------
Processing file: [03. Hypocrite.wav]
------------------------------------------------------------
This track looks like CDDA with probability 100%
------------------------------------------------------------
Processing file: [04. World without Fear.wav]
------------------------------------------------------------
This track looks like CDDA with probability 100%
------------------------------------------------------------
Processing file: [05. War Is a Crime.wav]
------------------------------------------------------------
This track looks like CDDA with probability 100%
------------------------------------------------------------
Processing file: [06. NYASH.wav]
------------------------------------------------------------
This track looks like CDDA with probability 99%
------------------------------------------------------------
Processing file: [07. N.E.S.T.A 75.wav]
------------------------------------------------------------
This track looks like CDDA with probability 100%
------------------------------------------------------------
Final Conclusion:
------------------------------------------------------------
These tracks looks like CDDA with probability 100%
 
Скриншот спектра частот
 
Состав
Backing Vocals - Antibalas
Bass - Del Sribling
Congas [Lead] - Ernesto Abreau
Congas, Percussion - Fernando Velez
Drums - Phil Ballman
Guitar - Gabriel Roth , Luke O'Malley
Keyboards - Victor Axelrod
Percussion, Drums - Dylan Fusillo (tracks: 2)
Saxophone [Alto] - Stuart Bogie
Saxophone [Baritone] - Martin Perna
Saxophone [Tenor] - Michael Herbst*
Shekere - Giancarlo Luiggi
Trombone - Aaron Johnson , Mike Wagner (tracks: 3)
Trumpet - Anda Szilagyi , Todd Simon
Trumpet [First] - Jordan McLean
Vocals, Congas, Percussion - Duke Amayo
22:04
336
Нет комментариев. Ваш будет первым!