Поиск

(Afrobeat, Funk, World Fusion) Antibalas - Antibalas - 2012, FLAC (tracks+.cue), lossless

Треклист:
Antibalas - Antibalas
Жанр: Afrobeat , Funk , World Fusion
Год издания: 2012
Аудиокодек: FLAC (*.flac)
Тип рипа: tracks+.cue
Битрейт аудио: lossless
Продолжительность: 00:42:31
Источник (релизер): WhatCD
Наличие сканов в содержимом раздачи: нет
Треклист:
01 - Dirty Money
02 - The Rat Catcher
03 - Him Belly No Go Sweet
04 - Ari Degbe
05 - Ìbéjì
06 - Sáré Kon Kon
 
Лог создания рипа
X Lossless Decoder version 20120609 (141.0)
XLD extraction logfile from 2012-08-21 15:38:56 -0500
Antibalas / Antibalas
Used drive : HL-DT-ST DVDRW GS23N (revision SB03)
Ripper mode : XLD Secure Ripper
Disable audio cache : OK for the drive with a cache less than 1375KiB
Make use of C2 pointers : NO
Read offset correction : 667
Max retry count : 20
Gap status : Analyzed, Appended
TOC of the extracted CD
Track | Start | Length | Start sector | End sector
---------------------------------------------------------
1 | 00:00:00 | 06:15:23 | 0 | 28147
2 | 06:15:23 | 08:12:31 | 28148 | 65078
3 | 14:27:54 | 06:55:71 | 65079 | 96274
4 | 21:23:50 | 06:43:35 | 96275 | 126534
5 | 28:07:10 | 06:16:52 | 126535 | 154786
6 | 34:23:62 | 08:07:33 | 154787 | 191344
AccurateRip Summary
Disc not found in AccurateRip DB.
All Tracks
Album gain : -7.33 dB
Peak : 0.988678
Statistics
Read error : 0
Jitter error (maybe fixed) : 0
Retry sector count : 0
Damaged sector count : 0
Track 01
Filename : /Add/Antibalas - Antibalas (2012)/[FLAC] Antibalas - Antibalas (2012)/01 Dirty Money.flac
/Add/Antibalas - Antibalas (2012)/[V0] Antibalas - Antibalas (2012)/01 Dirty Money.mp3
/Add/Antibalas - Antibalas (2012)/[MP3 320] Antibalas - Antibalas (2012)/01 Dirty Money.mp3
Pre-gap length : 00:02:00
Track gain : -8.19 dB
Peak : 0.988647
CRC32 hash (test run) : CB6FD1C7
CRC32 hash : CB6FD1C7
CRC32 hash (skip zero) : D6799ACE
AccurateRip v1 signature : B7A6945B
AccurateRip v2 signature : EA6834F2
->Track not present in AccurateRip database.
Statistics
Read error : 0
Jitter error (maybe fixed) : 0
Retry sector count : 0
Damaged sector count : 0
Track 02
Filename : /Add/Antibalas - Antibalas (2012)/[FLAC] Antibalas - Antibalas (2012)/02 The Rat Catcher.flac
/Add/Antibalas - Antibalas (2012)/[V0] Antibalas - Antibalas (2012)/02 The Rat Catcher.mp3
/Add/Antibalas - Antibalas (2012)/[MP3 320] Antibalas - Antibalas (2012)/02 The Rat Catcher.mp3
Track gain : -7.17 dB
Peak : 0.988647
CRC32 hash (test run) : 102ABD20
CRC32 hash : 102ABD20
CRC32 hash (skip zero) : 13F8E1F4
AccurateRip v1 signature : A9A5F7B5
AccurateRip v2 signature : E9618CBD
->Track not present in AccurateRip database.
Statistics
Read error : 0
Jitter error (maybe fixed) : 0
Retry sector count : 0
Damaged sector count : 0
Track 03
Filename : /Add/Antibalas - Antibalas (2012)/[FLAC] Antibalas - Antibalas (2012)/03 Him Belly No Go Sweet.flac
/Add/Antibalas - Antibalas (2012)/[V0] Antibalas - Antibalas (2012)/03 Him Belly No Go Sweet.mp3
/Add/Antibalas - Antibalas (2012)/[MP3 320] Antibalas - Antibalas (2012)/03 Him Belly No Go Sweet.mp3
Track gain : -7.91 dB
Peak : 0.988647
CRC32 hash (test run) : A471F1FD
CRC32 hash : A471F1FD
CRC32 hash (skip zero) : 2E1D51E4
AccurateRip v1 signature : C1F87922
AccurateRip v2 signature : D2C6013F
->Track not present in AccurateRip database.
Statistics
Read error : 0
Jitter error (maybe fixed) : 0
Retry sector count : 0
Damaged sector count : 0
Track 04
Filename : /Add/Antibalas - Antibalas (2012)/[FLAC] Antibalas - Antibalas (2012)/04 Ari Degbe.flac
/Add/Antibalas - Antibalas (2012)/[V0] Antibalas - Antibalas (2012)/04 Ari Degbe.mp3
/Add/Antibalas - Antibalas (2012)/[MP3 320] Antibalas - Antibalas (2012)/04 Ari Degbe.mp3
Track gain : -6.87 dB
Peak : 0.988647
CRC32 hash (test run) : C591F1F9
CRC32 hash : C591F1F9
CRC32 hash (skip zero) : D496AF78
AccurateRip v1 signature : 11DB1E29
AccurateRip v2 signature : 1E6B366F
->Track not present in AccurateRip database.
Statistics
Read error : 0
Jitter error (maybe fixed) : 0
Retry sector count : 0
Damaged sector count : 0
Track 05
Filename : /Add/Antibalas - Antibalas (2012)/[FLAC] Antibalas - Antibalas (2012)/05 Ìbéjì.flac
/Add/Antibalas - Antibalas (2012)/[V0] Antibalas - Antibalas (2012)/05 Ìbéjì.mp3
/Add/Antibalas - Antibalas (2012)/[MP3 320] Antibalas - Antibalas (2012)/05 Ìbéjì.mp3
Track gain : -6.08 dB
Peak : 0.988678
CRC32 hash (test run) : 4CF76D24
CRC32 hash : 4CF76D24
CRC32 hash (skip zero) : E9E5D746
AccurateRip v1 signature : DA685A6F
AccurateRip v2 signature : C780FE13
->Track not present in AccurateRip database.
Statistics
Read error : 0
Jitter error (maybe fixed) : 0
Retry sector count : 0
Damaged sector count : 0
Track 06
Filename : /Add/Antibalas - Antibalas (2012)/[FLAC] Antibalas - Antibalas (2012)/06 SГЎrГ© Kon Kon.flac
/Add/Antibalas - Antibalas (2012)/[V0] Antibalas - Antibalas (2012)/06 SГЎrГ© Kon Kon.mp3
/Add/Antibalas - Antibalas (2012)/[MP3 320] Antibalas - Antibalas (2012)/06 SГЎrГ© Kon Kon.mp3
Track gain : -7.05 dB
Peak : 0.988647
CRC32 hash (test run) : 07A5CF34
CRC32 hash : 07A5CF34
CRC32 hash (skip zero) : 40982870
AccurateRip v1 signature : DC31B2F6
AccurateRip v2 signature : 8139B63F
->Track not present in AccurateRip database.
Statistics
Read error : 0
Jitter error (maybe fixed) : 0
Retry sector count : 0
Damaged sector count : 0
No errors occurred
End of status report
 
Содержание индексной карты (.CUE)
TITLE "Antibalas"
PERFORMER "Antibalas"
REM GENRE "Funk"
REM DATE "2012"
REM DISCNUMBER 1
REM TOTALDISCS 1
REM DISCID 5F09F706
REM REPLAYGAIN_ALBUM_GAIN -7.33 dB
REM REPLAYGAIN_ALBUM_PEAK 0.988678
FILE "01 Dirty Money.flac" WAVE
TRACK 01 AUDIO
TITLE "Dirty Money"
PERFORMER "Antibalas"
ISRC US4GZ1102801
REM REPLAYGAIN_TRACK_GAIN -8.19 dB
REM REPLAYGAIN_TRACK_PEAK 0.988647
INDEX 01 00:00:00
FILE "02 The Rat Catcher.flac" WAVE
TRACK 02 AUDIO
TITLE "The Rat Catcher"
PERFORMER "Antibalas"
ISRC US4GZ1102802
REM REPLAYGAIN_TRACK_GAIN -7.17 dB
REM REPLAYGAIN_TRACK_PEAK 0.988647
INDEX 01 00:00:00
FILE "03 Him Belly No Go Sweet.flac" WAVE
TRACK 03 AUDIO
TITLE "Him Belly No Go Sweet"
PERFORMER "Antibalas"
ISRC US4GZ1102803
REM REPLAYGAIN_TRACK_GAIN -7.91 dB
REM REPLAYGAIN_TRACK_PEAK 0.988647
INDEX 01 00:00:00
FILE "04 Ari Degbe.flac" WAVE
TRACK 04 AUDIO
TITLE "Ari Degbe"
PERFORMER "Antibalas"
ISRC US4GZ1102804
REM REPLAYGAIN_TRACK_GAIN -6.87 dB
REM REPLAYGAIN_TRACK_PEAK 0.988647
INDEX 01 00:00:00
FILE "05 Ìbéjì.flac" WAVE
TRACK 05 AUDIO
TITLE "Ìbéjì"
PERFORMER "Antibalas"
ISRC US4GZ1102805
REM REPLAYGAIN_TRACK_GAIN -6.08 dB
REM REPLAYGAIN_TRACK_PEAK 0.988678
INDEX 01 00:00:00
FILE "06 SГЎrГ© Kon Kon.flac" WAVE
TRACK 06 AUDIO
TITLE "SГЎrГ© Kon Kon"
PERFORMER "Antibalas"
ISRC US4GZ1102806
REM REPLAYGAIN_TRACK_GAIN -7.05 dB
REM REPLAYGAIN_TRACK_PEAK 0.988647
INDEX 01 00:00:00
 
Antibalas.edit.cue
TITLE "Antibalas"
PERFORMER "Antibalas"
REM GENRE "Funk"
REM DATE "2012"
REM DISCNUMBER 1
REM TOTALDISCS 1
REM DISCID 5F09F706
REM REPLAYGAIN_ALBUM_GAIN -7.33 dB
REM REPLAYGAIN_ALBUM_PEAK 0.988678
FILE "01 Dirty Money.flac" WAVE
TRACK 01 AUDIO
TITLE "Dirty Money"
PERFORMER "Antibalas"
ISRC US4GZ1102801
REM REPLAYGAIN_TRACK_GAIN -8.19 dB
REM REPLAYGAIN_TRACK_PEAK 0.988647
INDEX 01 00:00:00
FILE "02 The Rat Catcher.flac" WAVE
TRACK 02 AUDIO
TITLE "The Rat Catcher"
PERFORMER "Antibalas"
ISRC US4GZ1102802
REM REPLAYGAIN_TRACK_GAIN -7.17 dB
REM REPLAYGAIN_TRACK_PEAK 0.988647
INDEX 01 00:00:00
FILE "03 Him Belly No Go Sweet.flac" WAVE
TRACK 03 AUDIO
TITLE "Him Belly No Go Sweet"
PERFORMER "Antibalas"
ISRC US4GZ1102803
REM REPLAYGAIN_TRACK_GAIN -7.91 dB
REM REPLAYGAIN_TRACK_PEAK 0.988647
INDEX 01 00:00:00
FILE "04 Ari Degbe.flac" WAVE
TRACK 04 AUDIO
TITLE "Ari Degbe"
PERFORMER "Antibalas"
ISRC US4GZ1102804
REM REPLAYGAIN_TRACK_GAIN -6.87 dB
REM REPLAYGAIN_TRACK_PEAK 0.988647
INDEX 01 00:00:00
FILE "05 Ìbéjì.flac" WAVE
TRACK 05 AUDIO
TITLE "Ìbéjì"
PERFORMER "Antibalas"
ISRC US4GZ1102805
REM REPLAYGAIN_TRACK_GAIN -6.08 dB
REM REPLAYGAIN_TRACK_PEAK 0.988678
INDEX 01 00:00:00
FILE "06 Sáré Kon Kon.flac" WAVE
TRACK 06 AUDIO
TITLE "Sáré Kon Kon"
PERFORMER "Antibalas"
ISRC US4GZ1102806
REM REPLAYGAIN_TRACK_GAIN -7.05 dB
REM REPLAYGAIN_TRACK_PEAK 0.988647
INDEX 01 00:00:00
05:06
316
Нет комментариев. Ваш будет первым!