Поиск

(Afrobeat, Funk) Antibalas Afrobeat Orchestra - Liberation Afrobeat Vol. 1 - 2001, FLAC (tracks+.cue), lossless

(Afrobeat, Funk) Antibalas Afrobeat Orchestra - Liberation Afrobeat Vol. 1 - 2001, FLAC (tracks+.cue), lossless
Antibalas Afrobeat Orchestra / Liberation Afrobeat Vol. 1

Жанр: Afrobeat, Funk
Страна-производитель диска: England
Год издания диска: 2001
Издатель (лейбл): Ninja Tune
Номер по каталогу: ZEN CD56
Страна: USA
Аудиокодек: FLAC (*.flac)
Тип рипа: tracks+.cue
Битрейт аудио: lossless
Продолжительность: 1:06:24
Источник: waffles.fm
Наличие сканов в содержимом раздачи: нет
Треклист:
01. Si, Se Puede [9:55]
02. Battle Of The Species [8:56]
03. Dirt And Blood [6:29]
04. N.E.S.T.A. (Never Ever Submit To Authority) [7:18]
05. Musicawi Silt (Live At The Jazz Cafe, London) [9:30]
06. Uprising [7:25]
07. El Machete [9:54]
08. World War IV (Live At The Jazz Cafe, London) [6:58]
 
Лог создания рипа
X Lossless Decoder version 20091121 (113.4)
XLD extraction logfile from 2009-11-22 01:09:04 -0800
Antibalas Afrobeat Orchestra / Liberation Afrobeat Vol. 1
Used drive : MATSHITA CD-RW CW-8124 (revision DACH)
Use cdparanoia mode : YES (CDParanoia III 10.2 engine)
Disable audio cache : OK for the drive with cache less than 2750KB
Make use of C2 pointers : NO
Read offset correction : 102
Max retry count : 100
TOC of the extracted CD
Track | Start | Length | Start sector | End sector
---------------------------------------------------------
1 | 00:00:00 | 09:54:41 | 0 | 44590
2 | 09:54:41 | 08:56:24 | 44591 | 84814
3 | 18:50:65 | 06:28:68 | 84815 | 113982
4 | 25:19:58 | 07:17:65 | 113983 | 146822
5 | 32:37:48 | 09:29:54 | 146823 | 189551
6 | 42:07:27 | 07:24:46 | 189552 | 222897
7 | 49:31:73 | 09:53:66 | 222898 | 267438
8 | 59:25:64 | 06:58:26 | 267439 | 298814
All Tracks
Album gain : -6.83 dB
Peak : 1.000000
Track 01
Filename : /Volumes/free/audio_up/ANTIBALAS/01 Antibalas Afrobeat Orchestra - Si, Se Puede.flac
Track gain : -5.79 dB
Peak : 1.000000
CRC32 hash (test run) : 5DA5DA35
CRC32 hash : 5DA5DA35
CRC32 hash (skip zero) : F1C4C6F7
AccurateRip signature : A63EB8F1
->Accurately ripped! (confidence 5)
Statistics
Read error : 0
Skipped (treated as error) : 0
Edge jitter error (maybe fixed) : 0
Atom jitter error (maybe fixed) : 0
Drift error (maybe fixed) : 0
Dropped bytes error (maybe fixed) : 0
Duplicated bytes error (maybe fixed) : 0
Inconsistency in error sectors : 0
Track 02
Filename : /Volumes/free/audio_up/ANTIBALAS/02 Antibalas Afrobeat Orchestra - Dirt And Blood.flac
Track gain : -5.88 dB
Peak : 0.974915
CRC32 hash (test run) : 7DAFDCDD
CRC32 hash : 7DAFDCDD
CRC32 hash (skip zero) : F1509C2C
AccurateRip signature : AE3F70E9
->Accurately ripped! (confidence 5)
Statistics
Read error : 0
Skipped (treated as error) : 0
Edge jitter error (maybe fixed) : 0
Atom jitter error (maybe fixed) : 0
Drift error (maybe fixed) : 0
Dropped bytes error (maybe fixed) : 0
Duplicated bytes error (maybe fixed) : 0
Inconsistency in error sectors : 0
Track 03
Filename : /Volumes/free/audio_up/ANTIBALAS/03 Antibalas Afrobeat Orchestra - Battle Of The Species.flac
Track gain : -5.10 dB
Peak : 0.974915
CRC32 hash (test run) : 65A314A0
CRC32 hash : 65A314A0
CRC32 hash (skip zero) : D3EC2407
AccurateRip signature : 7CB72EA4
->Accurately ripped! (confidence 5)
Statistics
Read error : 0
Skipped (treated as error) : 0
Edge jitter error (maybe fixed) : 0
Atom jitter error (maybe fixed) : 0
Drift error (maybe fixed) : 0
Dropped bytes error (maybe fixed) : 0
Duplicated bytes error (maybe fixed) : 0
Inconsistency in error sectors : 0
Track 04
Filename : /Volumes/free/audio_up/ANTIBALAS/04 Antibalas Afrobeat Orchestra - N.E.S.T.A. (Never Ever Submit To Authority).flac
Track gain : -7.95 dB
Peak : 0.997681
CRC32 hash (test run) : 525B91E2
CRC32 hash : 525B91E2
CRC32 hash (skip zero) : A2F17C8E
AccurateRip signature : 21216610
->Accurately ripped! (confidence 5)
Statistics
Read error : 0
Skipped (treated as error) : 0
Edge jitter error (maybe fixed) : 0
Atom jitter error (maybe fixed) : 0
Drift error (maybe fixed) : 0
Dropped bytes error (maybe fixed) : 0
Duplicated bytes error (maybe fixed) : 0
Inconsistency in error sectors : 0
Track 05
Filename : /Volumes/free/audio_up/ANTIBALAS/05 Antibalas Afrobeat Orchestra - Musicawi Silt (Live At The Jazz CafГ©, London).flac
Track gain : -1.76 dB
Peak : 0.974945
CRC32 hash (test run) : 514251DC
CRC32 hash : 514251DC
CRC32 hash (skip zero) : A5A1095B
AccurateRip signature : DCC6A1D8
->Accurately ripped! (confidence 5)
Statistics
Read error : 0
Skipped (treated as error) : 0
Edge jitter error (maybe fixed) : 0
Atom jitter error (maybe fixed) : 1
Drift error (maybe fixed) : 0
Dropped bytes error (maybe fixed) : 0
Duplicated bytes error (maybe fixed) : 0
Inconsistency in error sectors : 0
Track 06
Filename : /Volumes/free/audio_up/ANTIBALAS/06 Antibalas Afrobeat Orchestra - Uprising.flac
Track gain : -8.90 dB
Peak : 0.999969
CRC32 hash (test run) : 4B14835A
CRC32 hash : 4B14835A
CRC32 hash (skip zero) : B39A735D
AccurateRip signature : 45F24DD5
->Accurately ripped! (confidence 5)
Statistics
Read error : 0
Skipped (treated as error) : 0
Edge jitter error (maybe fixed) : 0
Atom jitter error (maybe fixed) : 0
Drift error (maybe fixed) : 0
Dropped bytes error (maybe fixed) : 0
Duplicated bytes error (maybe fixed) : 0
Inconsistency in error sectors : 0
Track 07
Filename : /Volumes/free/audio_up/ANTIBALAS/07 Antibalas Afrobeat Orchestra - El Machete.flac
Track gain : -7.25 dB
Peak : 0.999969
CRC32 hash (test run) : 39690FC1
CRC32 hash : 39690FC1
CRC32 hash (skip zero) : 0935D3A9
AccurateRip signature : 1458D2C5
->Accurately ripped! (confidence 5)
Statistics
Read error : 0
Skipped (treated as error) : 0
Edge jitter error (maybe fixed) : 0
Atom jitter error (maybe fixed) : 0
Drift error (maybe fixed) : 0
Dropped bytes error (maybe fixed) : 0
Duplicated bytes error (maybe fixed) : 0
Inconsistency in error sectors : 0
Track 08
Filename : /Volumes/free/audio_up/ANTIBALAS/08 Antibalas Afrobeat Orchestra - World War IV (Live At The Jazz CafГ©, London).flac
Track gain : -2.63 dB
Peak : 0.974915
CRC32 hash (test run) : DB705B31
CRC32 hash : DB705B31
CRC32 hash (skip zero) : 9C04AC62
AccurateRip signature : 93299D84
->Accurately ripped! (confidence 5)
Statistics
Read error : 0
Skipped (treated as error) : 0
Edge jitter error (maybe fixed) : 0
Atom jitter error (maybe fixed) : 0
Drift error (maybe fixed) : 0
Dropped bytes error (maybe fixed) : 0
Duplicated bytes error (maybe fixed) : 0
Inconsistency in error sectors : 0
No errors occurred
End of status report
 
Содержание индексной карты (.CUE)
TITLE "Liberation Afrobeat Vol. 1"
PERFORMER "Antibalas Afrobeat Orchestra"
REM GENRE "Afrobeat"
REM DATE 2000
REM DISCID 7A0F9008
FILE "01 Antibalas Afrobeat Orchestra - Si, Se Puede.wav" WAVE
TRACK 01 AUDIO
TITLE "Si, Se Puede"
ISRC GBCFB0100300
INDEX 01 00:00:00
TRACK 02 AUDIO
TITLE "Dirt And Blood"
ISRC GBCFB0100310
INDEX 00 09:52:57
FILE "02 Antibalas Afrobeat Orchestra - Dirt And Blood.wav" WAVE
INDEX 01 00:00:00
TRACK 03 AUDIO
TITLE "Battle Of The Species"
ISRC GBCFB0100320
INDEX 00 08:53:30
FILE "03 Antibalas Afrobeat Orchestra - Battle Of The Species.wav" WAVE
INDEX 01 00:00:00
TRACK 04 AUDIO
TITLE "N.E.S.T.A. (Never Ever Submit To Authority)"
ISRC GBCFB0100330
INDEX 00 06:26:11
FILE "04 Antibalas Afrobeat Orchestra - N.E.S.T.A. (Never Ever Submit To Authority).wav" WAVE
INDEX 01 00:00:00
TRACK 05 AUDIO
TITLE "Musicawi Silt (Live At The Jazz Cafe, London)"
ISRC GBCFB0100340
INDEX 00 07:14:56
FILE "05 Antibalas Afrobeat Orchestra - Musicawi Silt (Live At The Jazz Cafe, London).wav" WAVE
INDEX 01 00:00:00
TRACK 06 AUDIO
TITLE "Uprising"
ISRC GBCFB0100350
INDEX 00 09:26:47
FILE "06 Antibalas Afrobeat Orchestra - Uprising.wav" WAVE
INDEX 01 00:00:00
TRACK 07 AUDIO
TITLE "El Machete"
ISRC GBCFB0100360
INDEX 00 07:23:40
FILE "07 Antibalas Afrobeat Orchestra - El Machete.wav" WAVE
INDEX 01 00:00:00
TRACK 08 AUDIO
TITLE "World War IV (Live At The Jazz Cafe, London)"
ISRC GBCFB0100370
INDEX 00 09:52:52
FILE "08 Antibalas Afrobeat Orchestra - World War IV (Live At The Jazz Cafe, London).wav" WAVE
INDEX 01 00:00:00
 
О группе
New York-based Antibalas was formed in 1998 by musicians from King Changó, the Soul Providers, and the Daktaris. Influenced by Nigerian Afro-beat, American soul, and Latin dance grooves, Antibalas started playing at clubs around New York, hosting a weekend party called Africalia, giving them the opportunity to perform their particular style based on a combination of different cultures immersed in the band. After recording Liberation Afrobeat, the live album Live in New York! Summer 1999 was released. Liberation Afro Beat, Vol. 1 was issued in early 2001. The group returned to recording in 2004 and issued Who Is This America? on the Rope-a-Dope label, followed by Security on Anti Records in 2007.
 
Об альбоме
Fans of Fela, Tony Allen, and to a lesser extent the Daktaris will be hunkering down on the dancefloor to this slab of pure, hot, and heavy Afro-beat from the heart of Brooklyn. Antibalas is a musicians collective dedicated to furthering the Afro-beat gospel at any cost, and with 13 members and a boatload of frantic, bass- and drum-heavy chops, they're likely to succeed. These cats don't just have the form down; they're not just aping Fela, they're deconstructing the Afro-beat rhythms and harmonies down to the last detail and composing new sonic architectures from which to groove and improvise. This is deep, funky, political, spiritual, and greasier than a chicken bone out of the fryer. Tracing in just enough Cuban son to add dimension and the ghost of a sleng-teng rhythm here, a dub bass out there, and the ever-shifting polyrhythms of Afro-beat jazz and hypnosis of James Brown's funky soul, Antibalas takes eight tunes and turns them all into floor-burners. Led by baritone saxophonist and conductor Martin Antibalas, the ensemble numbers six in the percussion section, a four-piece horn section, a bassist, three guitarists, and an organ, with a host of vocalists chanting down the voodoo. "Dirt and Blood," "Si, Se Puede," and the burning wail of "El Machete" are standouts, though there isn't a weak second on this disc. One of two things will happen if you spin this jam at a party: you'll either politicize everyone by pure beat consciousness or they'll drop dead from too much dancing while under polyrhythmic hypnosis. That's the prognosis, folks; and that's as high a compliment as can be paid. Awesome.
 
Музыканты
Curent members
Stuart D. Bogie – Tenor Saxophone (2002-)
Martin Perna – Baritone Saxophone (1998-)
Jordan McLean – Trumpet, Flugelhorn
Eric Biondo – Trumpet
Aaron Johnson – Trombone (2000-)
Victor Axelrod – Organ, Electric Pianos, Clavinet, Electric Celeste, Synthesizers
Luke O'Malley – Guitar
Marcos J. Garcia – Guitar, Vocals
Nick Movshon – Bass
Chris Vatalaro – Drums
Duke Amayo – Vocals, Congas
Marcus Farrar – Shekere, Vocals
Former members
Michael Herbst - Tenor Saxophone, Alto Saxophone
Todd Simon - Trumpet
Anda Szilagyi - Trumpet
Mike Wagner - Trombone
Garbriel Roth (aka Bosco Mann) - Guitar
Del Stribling - Bass
Phillip Ballman - Drums, first band Manager (1999–2003)
Dylan Fusillo - Percussion, Drums
Fernando Velez - Congas
Ernesto Abreu - Congas
Giancarlo Luiggi - Shekere
Miles Arntzen - Drums
01:44
326
Нет комментариев. Ваш будет первым!