Поиск

(Afro-funk, afro-beat, soul) Rob - Make It Fast, Make It Slow - 2012, FLAC (tracks+.cue), lossless

(Afro-funk, afro-beat, soul) Rob - Make It Fast, Make It Slow - 2012, FLAC (tracks+.cue), lossless
Треклист:
Rob / Make It Fast, Make It Slow
Жанр: afro-funk, afro-beat, soul
Страна-производитель диска: UK
Год издания: 2012
Издатель (лейбл): SOUNDWAY
Номер по каталогу: SNDW040
Страна: Ghana
Аудиокодек: FLAC (*.flac)
Тип рипа: tracks+.cue
Битрейт аудио: lossless
Продолжительность: 33:36
Источник (релизер): What.cd
Наличие сканов в содержимом раздачи: да
Треклист:
01. Loose Up Yourself
02. Make It Fast, Make It Slow
03. Not The End
04. I've Got To See You Again, Lord
05. He Shall Live In You
06. But You
07. Bargain
08. Back On You
 
Лог создания рипа
Exact Audio Copy V1.0 beta 1 from 15. November 2010
EAC extraction logfile from 3. April 2012, 19:06
Rob / Make It Fast, Make It Slow
Used drive : HL-DT-STDVDRAM GSA-H42N Adapter: 4 ID: 0
Read mode : Secure
Utilize accurate stream : Yes
Defeat audio cache : No
Make use of C2 pointers : Yes
Read offset correction : 667
Overread into Lead-In and Lead-Out : No
Fill up missing offset samples with silence : Yes
Delete leading and trailing silent blocks : No
Null samples used in CRC calculations : No
Used interface : Native Win32 interface for Win NT & 2000
Gap handling : Not detected, thus appended to previous track
Used output format : User Defined Encoder
Selected bitrate : 768 kBit/s
Quality : High
Add ID3 tag : No
Command line compressor : C:\Program Files\Exact Audio Copy\FLAC\FLAC.EXE
Additional command line options : -6 -V -T "ARTIST=%a" -T "TITLE=%t" -T "ALBUM=%g" -T "DATE=%y" -T "TRACKNUMBER=%n" -T "GENRE=%m" -T "COMMENT=%e" %j--picture="%i"%j %s -o %d
TOC of the extracted CD
Track | Start | Length | Start sector | End sector
---------------------------------------------------------
1 | 0:00.00 | 3:26.61 | 0 | 15510
2 | 3:26.61 | 5:28.00 | 15511 | 40110
3 | 8:54.61 | 3:51.14 | 40111 | 57449
4 | 12:46.00 | 3:54.36 | 57450 | 75035
5 | 16:40.36 | 5:28.04 | 75036 | 99639
6 | 22:08.40 | 3:24.45 | 99640 | 114984
7 | 25:33.10 | 5:19.51 | 114985 | 138960
8 | 30:52.61 | 2:43.39 | 138961 | 151224
Track 1
Filename E:\02.EAC RIPPED AUDIO FILES\01. Loose Up Yourself.wav
Peak level 96.6 %
Extraction speed 16.3 X
Track quality 100.0 %
Copy CRC 0280401A
Track not present in AccurateRip database
Copy OK
Track 2
Filename E:\02.EAC RIPPED AUDIO FILES\02. Make It Fast, Make It Slow.wav
Peak level 96.6 %
Extraction speed 20.8 X
Track quality 100.0 %
Copy CRC 458C1392
Track not present in AccurateRip database
Copy OK
Track 3
Filename E:\02.EAC RIPPED AUDIO FILES\03. Not The End.wav
Peak level 96.6 %
Extraction speed 23.0 X
Track quality 100.0 %
Copy CRC 2F9C0F53
Track not present in AccurateRip database
Copy OK
Track 4
Filename E:\02.EAC RIPPED AUDIO FILES\04. I've Got To See You Again, Lord.wav
Peak level 96.6 %
Extraction speed 22.2 X
Track quality 100.0 %
Copy CRC C0537AB3
Track not present in AccurateRip database
Copy OK
Track 5
Filename E:\02.EAC RIPPED AUDIO FILES\05. He Shall Live In You.wav
Peak level 96.6 %
Extraction speed 26.6 X
Track quality 100.0 %
Copy CRC 0AF365E7
Track not present in AccurateRip database
Copy OK
Track 6
Filename E:\02.EAC RIPPED AUDIO FILES\06. But You.wav
Peak level 96.6 %
Extraction speed 28.5 X
Track quality 100.0 %
Copy CRC A263527C
Track not present in AccurateRip database
Copy OK
Track 7
Filename E:\02.EAC RIPPED AUDIO FILES\07. Bargain.wav
Peak level 96.6 %
Extraction speed 26.4 X
Track quality 99.9 %
Copy CRC A46A0C5F
Track not present in AccurateRip database
Copy OK
Track 8
Filename E:\02.EAC RIPPED AUDIO FILES\08. Back On You.wav
Peak level 96.6 %
Extraction speed 29.6 X
Track quality 99.8 %
Copy CRC 51342C4B
Track not present in AccurateRip database
Copy OK
None of the tracks are present in the AccurateRip database
No errors occurred
End of status report
 
Содержание индексной карты (.CUE)
REM GENRE Afro-Funk
REM DATE 1977
REM DISCID 5907E008
REM COMMENT "ExactAudioCopy v1.0b1"
PERFORMER "Rob"
TITLE "Make It Fast, Make It Slow"
FILE "01. Loose Up Yourself.flac" WAVE
TRACK 01 AUDIO
TITLE "Loose Up Yourself"
PERFORMER "Rob"
INDEX 01 00:00:00
FILE "02. Make It Fast, Make It Slow.flac" WAVE
TRACK 02 AUDIO
TITLE "Make It Fast, Make It Slow"
PERFORMER "Rob"
INDEX 01 00:00:00
TRACK 03 AUDIO
TITLE "Not The End"
PERFORMER "Rob"
INDEX 00 05:26:00
FILE "03. Not The End.flac" WAVE
INDEX 01 00:00:00
TRACK 04 AUDIO
TITLE "I've Got To See You Again, Lord"
PERFORMER "Rob"
INDEX 00 03:49:49
FILE "04. I've Got To See You Again, Lord.flac" WAVE
INDEX 01 00:00:00
TRACK 05 AUDIO
TITLE "He Shall Live In You"
PERFORMER "Rob"
INDEX 00 03:52:61
FILE "05. He Shall Live In You.flac" WAVE
INDEX 01 00:00:00
TRACK 06 AUDIO
TITLE "But You"
PERFORMER "Rob"
INDEX 00 05:26:04
FILE "06. But You.flac" WAVE
INDEX 01 00:00:00
TRACK 07 AUDIO
TITLE "Bargain"
PERFORMER "Rob"
INDEX 00 03:22:45
FILE "07. Bargain.flac" WAVE
INDEX 01 00:00:00
TRACK 08 AUDIO
TITLE "Back On You"
PERFORMER "Rob"
INDEX 00 05:17:51
FILE "08. Back On You.flac" WAVE
INDEX 01 00:00:00
 
Об альбоме (in English)
ROB was an enigmatic recording artist from Ghana who cut two albums for the legendary Essiebons label in 1977. Neither of these were big domestic hits at the time and have since become prized amongst collectors in recent years. The title track from this LP was always one of the most popular on the first Soundway release Ghana Soundz and over the years we have been asked many times to re-issue the LP in it’s entirety. A stranger, slower offering than his more dancefloor funk-laden and Spartan first LP, this record sees ROB in similar territory but with the tempo switched down and the introspection turned up.
ROB’s trademark horns dominate and are supplied by the Mag-2, an army band founded by leader Amponsah Rockson, who named it after the army unit the band played for – the “magnificent” second battalion. In 1977, Rob traveled to the coastal town of Takoradi in search of Mag-2, which had an entire section of its line-up dedicated to horns, with the intension of laying out his proposal to them. Luckily for Rob, the band took him up on it.
03:52
283
Нет комментариев. Ваш будет первым!