Поиск

(Afro-Cuban, Son Montuno) Arsenio Rodriguez - Quindembo / Afro Magic / La Magia De Arsenio Rodriguez - 1963, FLAC (tracks), lossless

Треклист:
Arsenio Rodríguez
Quindembo / Afro Magic / La Magia De Arsenio Rodriguez
Жанр: Afro-Cuban, Son Montuno
Год выпуска диска: 1963
Производитель диска: Sony Music Direct (MHCP 798)
Источник: вот.сиди (mrgastrognome)
Аудио кодек: FLAC
Тип рипа: tracks
Битрейт аудио: lossless
Продолжительность: 30:40
Трэклист:
1. Canto Abacoa
2. Bruca Manigua
3. Baila Simbale
4. Hun Hun
5. Oracion Lucumi
6. Compay Cimarron
7. Teenagers Bailan Changui
8. Alvanciosa
9. Torongombe Ya Cayo
10. Yimbila
11. Mona
12. Quindembo Hot
 
Отчёт EAC
Exact Audio Copy V0.99 prebeta 3 from 28. July 2007
EAC extraction logfile from 11. May 2010, 13:48
Arsenio Rodrнguez / Quindembo - Afro Magic - La Magia De Arsenio Rodrнguez
Used drive : TEAC CD-W540E Adapter: 0 ID: 0
Read mode : Secure
Utilize accurate stream : Yes
Defeat audio cache : Yes
Make use of C2 pointers : No
Read offset correction : 686
Overread into Lead-In and Lead-Out : No
Fill up missing offset samples with silence : Yes
Delete leading and trailing silent blocks : No
Null samples used in CRC calculations : Yes
Used interface : Native Win32 interface for Win NT & 2000
Gap handling : Appended to previous track
Used output format : User Defined Encoder
Selected bitrate : 320 kBit/s
Quality : High
Add ID3 tag : No
Command line compressor : C:\Program Files\Exact Audio Copy\Flac\flac.exe
Additional command line options : -V -8 -T "artist=%a" -T "title=%t" -T "album=%g" -T "date=%y" -T "tracknumber=%n" -T "genre=%m" %s
TOC of the extracted CD
Track | Start | Length | Start sector | End sector
---------------------------------------------------------
1 | 0:00.00 | 2:23.73 | 0 | 10797
2 | 2:23.73 | 2:30.61 | 10798 | 22108
3 | 4:54.59 | 2:13.21 | 22109 | 32104
4 | 7:08.05 | 2:16.59 | 32105 | 42363
5 | 9:24.64 | 2:25.16 | 42364 | 53254
6 | 11:50.05 | 2:45.02 | 53255 | 65631
7 | 14:35.07 | 2:25.37 | 65632 | 76543
8 | 17:00.44 | 3:16.01 | 76544 | 91244
9 | 20:16.45 | 2:50.62 | 91245 | 104056
10 | 23:07.32 | 2:20.30 | 104057 | 114586
11 | 25:27.62 | 2:56.57 | 114587 | 127843
12 | 28:24.44 | 2:15.45 | 127844 | 138013
Track 1
Filename C:\Whatbox\ Arsenio Rodrнguez - 1962 - Quindembo - Afro Magic - La Magia De Arsenio Rodrнguez\01 - Canto Abacoa.wav
Pre-gap length 0:00:02.00
Peak level 100.0 %
Track quality 100.0 %
Test CRC 79196DE2
Copy CRC 79196DE2
Accurately ripped (confidence 2) [01C0F30D]
Copy OK
Track 2
Filename C:\Whatbox\ Arsenio Rodrнguez - 1962 - Quindembo - Afro Magic - La Magia De Arsenio Rodrнguez\02 - Bruca Manigua.wav
Pre-gap length 0:00:02.16
Peak level 100.0 %
Track quality 100.0 %
Test CRC C50A1AFE
Copy CRC C50A1AFE
Accurately ripped (confidence 2) [3E922DE9]
Copy OK
Track 3
Filename C:\Whatbox\ Arsenio Rodrнguez - 1962 - Quindembo - Afro Magic - La Magia De Arsenio Rodrнguez\03 - Baila Simbale.wav
Pre-gap length 0:00:02.02
Peak level 100.0 %
Track quality 100.0 %
Test CRC A388CDDD
Copy CRC A388CDDD
Accurately ripped (confidence 2) [8FFACEDA]
Copy OK
Track 4
Filename C:\Whatbox\ Arsenio Rodrнguez - 1962 - Quindembo - Afro Magic - La Magia De Arsenio Rodrнguez\04 - Hun Hun.wav
Pre-gap length 0:00:02.06
Peak level 99.6 %
Track quality 99.9 %
Test CRC BC5D00F3
Copy CRC BC5D00F3
Accurately ripped (confidence 2) [328DE7F0]
Copy OK
Track 5
Filename C:\Whatbox\ Arsenio Rodrнguez - 1962 - Quindembo - Afro Magic - La Magia De Arsenio Rodrнguez\05 - Oracion Lucumi.wav
Pre-gap length 0:00:02.02
Peak level 56.3 %
Track quality 100.0 %
Test CRC 61B0F51C
Copy CRC 61B0F51C
Accurately ripped (confidence 2) [8B06BA31]
Copy OK
Track 6
Filename C:\Whatbox\ Arsenio Rodrнguez - 1962 - Quindembo - Afro Magic - La Magia De Arsenio Rodrнguez\06 - Compay Cimaron.wav
Pre-gap length 0:00:01.40
Peak level 100.0 %
Track quality 99.9 %
Test CRC 4179A072
Copy CRC 4179A072
Accurately ripped (confidence 2) [F22B648C]
Copy OK
Track 7
Filename C:\Whatbox\ Arsenio Rodrнguez - 1962 - Quindembo - Afro Magic - La Magia De Arsenio Rodrнguez\07 - Los Teeagers Bailen Changui.wav
Pre-gap length 0:00:02.00
Peak level 100.0 %
Track quality 100.0 %
Test CRC AC159093
Copy CRC AC159093
Accurately ripped (confidence 2) [4282D37A]
Copy OK
Track 8
Filename C:\Whatbox\ Arsenio Rodrнguez - 1962 - Quindembo - Afro Magic - La Magia De Arsenio Rodrнguez\08 - Albanciosa.wav
Pre-gap length 0:00:02.94
Peak level 100.0 %
Track quality 100.0 %
Test CRC 45CDDF4F
Copy CRC 45CDDF4F
Accurately ripped (confidence 2) [B2A10CD6]
Copy OK
Track 9
Filename C:\Whatbox\ Arsenio Rodrнguez - 1962 - Quindembo - Afro Magic - La Magia De Arsenio Rodrнguez\09 - Torongonbe Ya Cayo.wav
Pre-gap length 0:00:02.02
Peak level 100.0 %
Track quality 100.0 %
Test CRC 07132236
Copy CRC 07132236
Accurately ripped (confidence 2) [5F9271C5]
Copy OK
Track 10
Filename C:\Whatbox\ Arsenio Rodrнguez - 1962 - Quindembo - Afro Magic - La Magia De Arsenio Rodrнguez\10 - Timbila.wav
Pre-gap length 0:00:02.21
Peak level 100.0 %
Track quality 100.0 %
Test CRC 27D2FCFC
Copy CRC 27D2FCFC
Accurately ripped (confidence 2) [FC7B063C]
Copy OK
Track 11
Filename C:\Whatbox\ Arsenio Rodrнguez - 1962 - Quindembo - Afro Magic - La Magia De Arsenio Rodrнguez\11 - Mona.wav
Pre-gap length 0:00:02.20
Peak level 99.7 %
Track quality 100.0 %
Test CRC AF882340
Copy CRC AF882340
Accurately ripped (confidence 2) [12F3CEC8]
Copy OK
Track 12
Filename C:\Whatbox\ Arsenio Rodrнguez - 1962 - Quindembo - Afro Magic - La Magia De Arsenio Rodrнguez\12 - Quindembo Hot.wav
Pre-gap length 0:00:02.10
Peak level 100.0 %
Track quality 100.0 %
Test CRC 5B188F46
Copy CRC 5B188F46
Accurately ripped (confidence 2) [D8B108B6]
Copy OK
All tracks accurately ripped
No errors occurred
End of status report
 
Отчёт Audiocheckera
AUDIOCHECKER v2.0 beta (build 457) - by Dester - opdester@freemail.hu
~~~~~~~~~~~~~~~~~~~~~~~~~~~~~~~~~~
-=== DO NOT EDIT THIS FILE! ===-
Path: ...\quindembo - afro magic - la magia de arsenio rodriguez
01 -=- 01 - Canto Abacoa.flac -=- CDDA (99%)
02 -=- 02 - Bruca Manigua.flac -=- CDDA (100%)
03 -=- 03 - Baila Simbale.flac -=- CDDA (100%)
04 -=- 04 - Hun Hun.flac -=- CDDA (100%)
05 -=- 05 - Oracion Lucumi.flac -=- CDDA (100%)
06 -=- 06 - Compay Cimaron.flac -=- CDDA (100%)
07 -=- 07 - Los Teeagers Bailen Changui.flac -=- CDDA (100%)
08 -=- 08 - Albanciosa.flac -=- CDDA (100%)
09 -=- 09 - Torongonbe Ya Cayo.flac -=- CDDA (100%)
10 -=- 10 - Timbila.flac -=- CDDA (100%)
11 -=- 11 - Mona.flac -=- CDDA (100%)
12 -=- 12 - Quindembo Hot.flac -=- CDDA (100%)
Summary 99.92% CDDA
70768484
15:52
252
Нет комментариев. Ваш будет первым!