Поиск

(Afro-Cuban, Son Montuno) Arsenio Rodriguez - El Rey del Son Montuno (compilation) - 2004, FLAC (tracks+.cue), lossless

Arsenio Rodríguez - El Rey del Son Montuno
Жанр: Afro-Cuban, Son Montuno
Год выпуска диска: 2004
Производитель диска: Rice Records (RRS-001)
Источник: вот.сиди (lyzibang)
Аудио кодек: FLAC
Тип рипа: tracks+.cue
Битрейт аудио: lossless
Продолжительность: 1:12:40
Трэклист:
1. Yo 'Ta Namora 3:23
2. Corazon de Hielo 3:40
3. Oye Como Dice 3:10
4. El Palo Tiene Curujey 3:10
5. Flor de Canela 3:18
6. Dame un Cachito Pa'Huele' 2:52
7. El Reloj de Pastora 3:03
8. Canta Montero 3:25
9. Juventud Amaliana 3:20
10. Me Siento Muy Solo 3:08
11. Tocoloro 3:05
12. Appurrunenme Mujer 2:44
13. La Vida Es un Sueno 3:34
14. A Belen le Toca Ahora 3:11
15. No Me Llores Mas 3:22
16. Pueblo Nuevo Se Paso 3:19
17. Kila, Quique y Chocolate 2:50
18. Vuelvo a La Vida 3:00
19. Ta Benito Eh 2:55
20. Pobre Mi Cuba 3:10
21. La Gente del Bronx 2:53
22. Los Guepos en Yatera/La Yuca de Catalina/El Reloj de Pastora 5:58
К сожалению, мне не удалось найти удовлетворительного описания этого сборника в сети, могу лишь сообщить, что представлены записи от ранних кубинских (1930-40 - е годы ?) до нью-йоркского периода (после 1950 ?). Буду благодарен за любую помощь в уточнении описания.
 
Отчёт EAC
Exact Audio Copy V0.99 prebeta 5 from 4. May 2009
EAC extraction logfile from 4. October 2009, 16:03
Arsenio Rodriguez / El Rey Del Son Montuno
Used drive : _NEC DVD+-RW ND-6650A Adapter: 1 ID: 0
Read mode : Secure
Utilize accurate stream : Yes
Defeat audio cache : Yes
Make use of C2 pointers : No
Read offset correction : 48
Overread into Lead-In and Lead-Out : No
Fill up missing offset samples with silence : Yes
Delete leading and trailing silent blocks : No
Null samples used in CRC calculations : Yes
Used interface : Native Win32 interface for Win NT & 2000
Gap handling : Appended to previous track
Used output format : User Defined Encoder
Selected bitrate : 768 kBit/s
Quality : High
Add ID3 tag : No
Command line compressor : C:\Program Files\Exact Audio Copy\FLAC\FLAC.EXE
Additional command line options : -V -8 -T "artist=%a" -T "title=%t" -T "album=%g" -T "date=%y" -T "tracknumber=%n" -T "genre=%m" %s
TOC of the extracted CD
Track | Start | Length | Start sector | End sector
---------------------------------------------------------
1 | 0:00.00 | 3:23.07 | 0 | 15231
2 | 3:23.07 | 3:40.34 | 15232 | 31765
3 | 7:03.41 | 3:10.06 | 31766 | 46021
4 | 10:13.47 | 3:10.27 | 46022 | 60298
5 | 13:23.74 | 3:18.58 | 60299 | 75206
6 | 16:42.57 | 2:52.03 | 75207 | 88109
7 | 19:34.60 | 3:03.49 | 88110 | 101883
8 | 22:38.34 | 3:25.52 | 101884 | 117310
9 | 26:04.11 | 3:20.22 | 117311 | 132332
10 | 29:24.33 | 3:08.24 | 132333 | 146456
11 | 32:32.57 | 3:05.68 | 146457 | 160399
12 | 35:38.50 | 2:44.12 | 160400 | 172711
13 | 38:22.62 | 3:34.60 | 172712 | 188821
14 | 41:57.47 | 3:11.27 | 188822 | 203173
15 | 45:08.74 | 3:22.18 | 203174 | 218341
16 | 48:31.17 | 3:19.62 | 218342 | 233328
17 | 51:51.04 | 2:50.16 | 233329 | 246094
18 | 54:41.20 | 3:00.46 | 246095 | 259640
19 | 57:41.66 | 2:55.42 | 259641 | 272807
20 | 60:37.33 | 3:10.65 | 272808 | 287122
21 | 63:48.23 | 2:53.50 | 287123 | 300147
22 | 66:41.73 | 5:58.06 | 300148 | 327003
Track 1
Filename E:\Music Library\Commercial Releases\Arsenio Rodriguez El Rey del Son Montuno (2004 Rice RRS-001)\Arsenio Rodriguez El Rey Del Son Montuno 01 Yo Ta Namora.wav
Pre-gap length 0:00:02.00
Peak level 77.5 %
Track quality 100.0 %
Test CRC 8EFFE037
Copy CRC 8EFFE037
Track not present in AccurateRip database
Copy OK
Track 2
Filename E:\Music Library\Commercial Releases\Arsenio Rodriguez El Rey del Son Montuno (2004 Rice RRS-001)\Arsenio Rodriguez El Rey Del Son Montuno 02 Corazon De Hielo.wav
Pre-gap length 0:00:01.60
Peak level 79.3 %
Track quality 100.0 %
Test CRC 3F5824A3
Copy CRC 3F5824A3
Track not present in AccurateRip database
Copy OK
Track 3
Filename E:\Music Library\Commercial Releases\Arsenio Rodriguez El Rey del Son Montuno (2004 Rice RRS-001)\Arsenio Rodriguez El Rey Del Son Montuno 03 Oye Como Dice.wav
Pre-gap length 0:00:01.60
Peak level 94.3 %
Track quality 100.0 %
Test CRC 3B290B16
Copy CRC 3B290B16
Track not present in AccurateRip database
Copy OK
Track 4
Filename E:\Music Library\Commercial Releases\Arsenio Rodriguez El Rey del Son Montuno (2004 Rice RRS-001)\Arsenio Rodriguez El Rey Del Son Montuno 04 El Palo Tiene Curujey.wav
Pre-gap length 0:00:01.60
Peak level 94.3 %
Track quality 100.0 %
Test CRC 96000CD7
Copy CRC 96000CD7
Track not present in AccurateRip database
Copy OK
Track 5
Filename E:\Music Library\Commercial Releases\Arsenio Rodriguez El Rey del Son Montuno (2004 Rice RRS-001)\Arsenio Rodriguez El Rey Del Son Montuno 05 Flor De Canela.wav
Pre-gap length 0:00:01.60
Peak level 84.0 %
Track quality 100.0 %
Test CRC CD9C430C
Copy CRC CD9C430C
Track not present in AccurateRip database
Copy OK
Track 6
Filename E:\Music Library\Commercial Releases\Arsenio Rodriguez El Rey del Son Montuno (2004 Rice RRS-001)\Arsenio Rodriguez El Rey Del Son Montuno 06 Dame Un Cachito Pa'Huele'.wav
Pre-gap length 0:00:01.60
Peak level 94.4 %
Track quality 100.0 %
Test CRC 11984524
Copy CRC 11984524
Track not present in AccurateRip database
Copy OK
Track 7
Filename E:\Music Library\Commercial Releases\Arsenio Rodriguez El Rey del Son Montuno (2004 Rice RRS-001)\Arsenio Rodriguez El Rey Del Son Montuno 07 El Reloj De Pastora.wav
Pre-gap length 0:00:01.60
Peak level 94.4 %
Track quality 100.0 %
Test CRC C1F9E634
Copy CRC C1F9E634
Track not present in AccurateRip database
Copy OK
Track 8
Filename E:\Music Library\Commercial Releases\Arsenio Rodriguez El Rey del Son Montuno (2004 Rice RRS-001)\Arsenio Rodriguez El Rey Del Son Montuno 08 Cantana Montero.wav
Pre-gap length 0:00:01.60
Peak level 74.9 %
Track quality 100.0 %
Test CRC 7BD91337
Copy CRC 7BD91337
Track not present in AccurateRip database
Copy OK
Track 9
Filename E:\Music Library\Commercial Releases\Arsenio Rodriguez El Rey del Son Montuno (2004 Rice RRS-001)\Arsenio Rodriguez El Rey Del Son Montuno 09 Juventud Amaliana.wav
Pre-gap length 0:00:01.60
Peak level 86.0 %
Track quality 100.0 %
Test CRC 4FDD4CF8
Copy CRC 4FDD4CF8
Track not present in AccurateRip database
Copy OK
Track 10
Filename E:\Music Library\Commercial Releases\Arsenio Rodriguez El Rey del Son Montuno (2004 Rice RRS-001)\Arsenio Rodriguez El Rey Del Son Montuno 10 Me Siento Muy Solo.wav
Pre-gap length 0:00:01.60
Peak level 97.6 %
Track quality 100.0 %
Test CRC 0B93C4AC
Copy CRC 0B93C4AC
Track not present in AccurateRip database
Copy OK
Track 11
Filename E:\Music Library\Commercial Releases\Arsenio Rodriguez El Rey del Son Montuno (2004 Rice RRS-001)\Arsenio Rodriguez El Rey Del Son Montuno 11 Tocoloro.wav
Pre-gap length 0:00:01.60
Peak level 89.0 %
Track quality 100.0 %
Test CRC 8AB02687
Copy CRC 8AB02687
Track not present in AccurateRip database
Copy OK
Track 12
Filename E:\Music Library\Commercial Releases\Arsenio Rodriguez El Rey del Son Montuno (2004 Rice RRS-001)\Arsenio Rodriguez El Rey Del Son Montuno 12 Appurrunenme Mujer.wav
Pre-gap length 0:00:01.60
Peak level 84.0 %
Track quality 100.0 %
Test CRC 9177F9C1
Copy CRC 9177F9C1
Track not present in AccurateRip database
Copy OK
Track 13
Filename E:\Music Library\Commercial Releases\Arsenio Rodriguez El Rey del Son Montuno (2004 Rice RRS-001)\Arsenio Rodriguez El Rey Del Son Montuno 13 La Vida Es Un Sueno.wav
Pre-gap length 0:00:01.60
Peak level 94.3 %
Track quality 100.0 %
Test CRC CA7AC574
Copy CRC CA7AC574
Track not present in AccurateRip database
Copy OK
Track 14
Filename E:\Music Library\Commercial Releases\Arsenio Rodriguez El Rey del Son Montuno (2004 Rice RRS-001)\Arsenio Rodriguez El Rey Del Son Montuno 14 A Belen Le Toca Ahora.wav
Pre-gap length 0:00:01.60
Peak level 94.3 %
Track quality 100.0 %
Test CRC FB7075E3
Copy CRC FB7075E3
Track not present in AccurateRip database
Copy OK
Track 15
Filename E:\Music Library\Commercial Releases\Arsenio Rodriguez El Rey del Son Montuno (2004 Rice RRS-001)\Arsenio Rodriguez El Rey Del Son Montuno 15 No Me Llores Mas.wav
Pre-gap length 0:00:01.60
Peak level 82.1 %
Track quality 99.9 %
Test CRC 5F4AC80B
Copy CRC 5F4AC80B
Track not present in AccurateRip database
Copy OK
Track 16
Filename E:\Music Library\Commercial Releases\Arsenio Rodriguez El Rey del Son Montuno (2004 Rice RRS-001)\Arsenio Rodriguez El Rey Del Son Montuno 16 Pueblo Nuevo Se Paso.wav
Pre-gap length 0:00:01.60
Peak level 98.7 %
Track quality 100.0 %
Test CRC 331C39BF
Copy CRC 331C39BF
Track not present in AccurateRip database
Copy OK
Track 17
Filename E:\Music Library\Commercial Releases\Arsenio Rodriguez El Rey del Son Montuno (2004 Rice RRS-001)\Arsenio Rodriguez El Rey Del Son Montuno 17 Kila, Quique Y Chocolate.wav
Pre-gap length 0:00:01.60
Peak level 89.0 %
Track quality 100.0 %
Test CRC CE57B117
Copy CRC CE57B117
Track not present in AccurateRip database
Copy OK
Track 18
Filename E:\Music Library\Commercial Releases\Arsenio Rodriguez El Rey del Son Montuno (2004 Rice RRS-001)\Arsenio Rodriguez El Rey Del Son Montuno 18 Vuelvo A La Vida.wav
Pre-gap length 0:00:01.60
Peak level 99.8 %
Track quality 100.0 %
Test CRC D9086213
Copy CRC D9086213
Track not present in AccurateRip database
Copy OK
Track 19
Filename E:\Music Library\Commercial Releases\Arsenio Rodriguez El Rey del Son Montuno (2004 Rice RRS-001)\Arsenio Rodriguez El Rey Del Son Montuno 19 Ta Benito Eh.wav
Pre-gap length 0:00:01.60
Peak level 72.3 %
Track quality 100.0 %
Test CRC 56891407
Copy CRC 56891407
Track not present in AccurateRip database
Copy OK
Track 20
Filename E:\Music Library\Commercial Releases\Arsenio Rodriguez El Rey del Son Montuno (2004 Rice RRS-001)\Arsenio Rodriguez El Rey Del Son Montuno 20 Pobre Mi Cuba.wav
Pre-gap length 0:00:01.60
Peak level 88.0 %
Track quality 100.0 %
Test CRC 8DFF7977
Copy CRC 8DFF7977
Track not present in AccurateRip database
Copy OK
Track 21
Filename E:\Music Library\Commercial Releases\Arsenio Rodriguez El Rey del Son Montuno (2004 Rice RRS-001)\Arsenio Rodriguez El Rey Del Son Montuno 21 La Gente Del Bronx.wav
Pre-gap length 0:00:01.60
Peak level 89.1 %
Track quality 99.9 %
Test CRC 21D536B3
Copy CRC 21D536B3
Track not present in AccurateRip database
Copy OK
Track 22
Filename E:\Music Library\Commercial Releases\Arsenio Rodriguez El Rey del Son Montuno (2004 Rice RRS-001)\Arsenio Rodriguez El Rey Del Son Montuno 22 Los Guapos En Yatera , La Yuca De Catalina , El Reloj De Pastora.wav
Pre-gap length 0:00:01.60
Peak level 96.5 %
Track quality 100.0 %
Test CRC CC6338D8
Copy CRC CC6338D8
Track not present in AccurateRip database
Copy OK
None of the tracks are present in the AccurateRip database
No errors occurred
End of status report
 
cue
REM GENRE Latin
REM DATE 2004
REM DISCID 11110816
REM COMMENT "ExactAudioCopy v0.99pb5"
FILE "Arsenio Rodriguez El Rey Del Son Montuno 01 Yo Ta Namora.wav" WAVE
TRACK 01 AUDIO
INDEX 01 00:00:00
TRACK 02 AUDIO
INDEX 00 03:21:37
FILE "Arsenio Rodriguez El Rey Del Son Montuno 02 Corazon De Hielo.wav" WAVE
INDEX 01 00:00:00
TRACK 03 AUDIO
INDEX 00 03:38:64
FILE "Arsenio Rodriguez El Rey Del Son Montuno 03 Oye Como Dice.wav" WAVE
INDEX 01 00:00:00
TRACK 04 AUDIO
INDEX 00 03:08:36
FILE "Arsenio Rodriguez El Rey Del Son Montuno 04 El Palo Tiene Curujey.wav" WAVE
INDEX 01 00:00:00
TRACK 05 AUDIO
INDEX 00 03:08:57
FILE "Arsenio Rodriguez El Rey Del Son Montuno 05 Flor De Canela.wav" WAVE
INDEX 01 00:00:00
TRACK 06 AUDIO
INDEX 00 03:17:13
FILE "Arsenio Rodriguez El Rey Del Son Montuno 06 Dame Un Cachito Pa'Huele'.wav" WAVE
INDEX 01 00:00:00
TRACK 07 AUDIO
INDEX 00 02:50:33
FILE "Arsenio Rodriguez El Rey Del Son Montuno 07 El Reloj De Pastora.wav" WAVE
INDEX 01 00:00:00
TRACK 08 AUDIO
INDEX 00 03:02:04
FILE "Arsenio Rodriguez El Rey Del Son Montuno 08 Cantana Montero.wav" WAVE
INDEX 01 00:00:00
TRACK 09 AUDIO
INDEX 00 03:24:07
FILE "Arsenio Rodriguez El Rey Del Son Montuno 09 Juventud Amaliana.wav" WAVE
INDEX 01 00:00:00
TRACK 10 AUDIO
INDEX 00 03:18:52
FILE "Arsenio Rodriguez El Rey Del Son Montuno 10 Me Siento Muy Solo.wav" WAVE
INDEX 01 00:00:00
TRACK 11 AUDIO
INDEX 00 03:06:54
FILE "Arsenio Rodriguez El Rey Del Son Montuno 11 Tocoloro.wav" WAVE
INDEX 01 00:00:00
TRACK 12 AUDIO
INDEX 00 03:04:23
FILE "Arsenio Rodriguez El Rey Del Son Montuno 12 Appurrunenme Mujer.wav" WAVE
INDEX 01 00:00:00
TRACK 13 AUDIO
INDEX 00 02:42:42
FILE "Arsenio Rodriguez El Rey Del Son Montuno 13 La Vida Es Un Sueno.wav" WAVE
INDEX 01 00:00:00
TRACK 14 AUDIO
INDEX 00 03:33:15
FILE "Arsenio Rodriguez El Rey Del Son Montuno 14 A Belen Le Toca Ahora.wav" WAVE
INDEX 01 00:00:00
TRACK 15 AUDIO
INDEX 00 03:09:57
FILE "Arsenio Rodriguez El Rey Del Son Montuno 15 No Me Llores Mas.wav" WAVE
INDEX 01 00:00:00
TRACK 16 AUDIO
INDEX 00 03:20:48
FILE "Arsenio Rodriguez El Rey Del Son Montuno 16 Pueblo Nuevo Se Paso.wav" WAVE
INDEX 01 00:00:00
TRACK 17 AUDIO
INDEX 00 03:18:17
FILE "Arsenio Rodriguez El Rey Del Son Montuno 17 Kila, Quique Y Chocolate.wav" WAVE
INDEX 01 00:00:00
TRACK 18 AUDIO
INDEX 00 02:48:46
FILE "Arsenio Rodriguez El Rey Del Son Montuno 18 Vuelvo A La Vida.wav" WAVE
INDEX 01 00:00:00
TRACK 19 AUDIO
INDEX 00 02:59:01
FILE "Arsenio Rodriguez El Rey Del Son Montuno 19 Ta Benito Eh.wav" WAVE
INDEX 01 00:00:00
TRACK 20 AUDIO
INDEX 00 02:53:72
FILE "Arsenio Rodriguez El Rey Del Son Montuno 20 Pobre Mi Cuba.wav" WAVE
INDEX 01 00:00:00
TRACK 21 AUDIO
INDEX 00 03:09:20
FILE "Arsenio Rodriguez El Rey Del Son Montuno 21 La Gente Del Bronx.wav" WAVE
INDEX 01 00:00:00
TRACK 22 AUDIO
INDEX 00 02:52:05
FILE "Arsenio Rodriguez El Rey Del Son Montuno 22 Los Guapos En Yatera , La Yuca De Catalina , El Reloj De Pastora.wav" WAVE
INDEX 01 00:00:00
 
Отчёт Audiocheckera
AUDIOCHECKER v2.0 beta (build 457) - by Dester - opdester@freemail.hu
~~~~~~~~~~~~~~~~~~~~~~~~~~~~~~~~~~
-=== DO NOT EDIT THIS FILE! ===-
Path: ...\el rey del son montuno 2004
01 -=- Arsenio Rodriguez El Rey Del Son Montuno 01 Yo Ta Namora.flac -=- CDDA (100%)
02 -=- Arsenio Rodriguez El Rey Del Son Montuno 02 Corazon De Hielo.flac -=- CDDA (76%)
03 -=- Arsenio Rodriguez El Rey Del Son Montuno 03 Oye Como Dice.flac -=- CDDA (100%)
04 -=- Arsenio Rodriguez El Rey Del Son Montuno 04 El Palo Tiene Curujey.flac -=- CDDA (100%)
05 -=- Arsenio Rodriguez El Rey Del Son Montuno 05 Flor De Canela.flac -=- CDDA (100%)
06 -=- Arsenio Rodriguez El Rey Del Son Montuno 06 Dame Un Cachito Pa'Huele'.flac -=- CDDA (76%)
07 -=- Arsenio Rodriguez El Rey Del Son Montuno 07 El Reloj De Pastora.flac -=- CDDA (100%)
08 -=- Arsenio Rodriguez El Rey Del Son Montuno 08 Cantana Montero.flac -=- CDDA (42%)
09 -=- Arsenio Rodriguez El Rey Del Son Montuno 09 Juventud Amaliana.flac -=- MPEG (100%)
10 -=- Arsenio Rodriguez El Rey Del Son Montuno 10 Me Siento Muy Solo.flac -=- CDDA (100%)
11 -=- Arsenio Rodriguez El Rey Del Son Montuno 11 Tocoloro.flac -=- MPEG (100%)
12 -=- Arsenio Rodriguez El Rey Del Son Montuno 12 Appurrunenme Mujer.flac -=- MPEG (91%)
13 -=- Arsenio Rodriguez El Rey Del Son Montuno 13 La Vida Es Un Sueno.flac -=- MPEG (100%)
14 -=- Arsenio Rodriguez El Rey Del Son Montuno 14 A Belen Le Toca Ahora.flac -=- MPEG (89%)
15 -=- Arsenio Rodriguez El Rey Del Son Montuno 15 No Me Llores Mas.flac -=- MPEG (80%)
16 -=- Arsenio Rodriguez El Rey Del Son Montuno 16 Pueblo Nuevo Se Paso.flac -=- CDDA (49%)
17 -=- Arsenio Rodriguez El Rey Del Son Montuno 17 Kila, Quique Y Chocolate.flac -=- CDDA (85%)
18 -=- Arsenio Rodriguez El Rey Del Son Montuno 18 Vuelvo A La Vida.flac -=- MPEG (100%)
19 -=- Arsenio Rodriguez El Rey Del Son Montuno 19 Ta Benito Eh.flac -=- CDDA (100%)
20 -=- Arsenio Rodriguez El Rey Del Son Montuno 20 Pobre Mi Cuba.flac -=- CDDA (99%)
21 -=- Arsenio Rodriguez El Rey Del Son Montuno 21 La Gente Del Bronx.flac -=- CDDA (100%)
22 -=- Arsenio Rodriguez El Rey Del Son Montuno 22 Los Guapos En Yatera , La Yuca De Catalina , El Reloj De Pastora.flac -=- CDDA (76%)
Summary 61.05% CDDA
10975524
 
Спектры не понравившихся Audiocheckery файлов
15:50
371
Нет комментариев. Ваш будет первым!