Поиск

(Afro-Cuban Jazz, World Fusion, Post-Bop) Jane Bunnett - Коллекция - 1996-2008 (7 альбомов) (w/ Dewey Redman, Stanley Cowell, The Spirits of Havana, Cuban Piano Masters), APE (image+.cue), lossless

(Afro-Cuban Jazz, World Fusion, Post-Bop) Jane Bunnett - Коллекция - 1996-2008 (7 альбомов) (w/ Dewey Redman, Stanley Cowell, The Spirits of Havana, Cuban Piano Masters), APE (image+.cue), lossless
Треклист:
Jane Bunnett
Коллекция - 1996-2008 (7 альбомов) Джейн Баннетт (Jane Bunnett, 22.10.1956) - канадская исполнительница афро-кубанских джазовых мелодий на сопрано-саксофоне и флейте, а также руководитель джазового оркестра.
 
О Джейн Баннетт
Жила-была в Канаде молодая классическая пианистка по имени Джейн Баннетт. Жила себе, никого не трогала, училась в своем Торонто. Довелось ей как-то побывать в Калифорнии. Услыхала она там Чарльза Мингуса и Роланда Кирка, и осенило её, и открылся ей мир джаза. И пошла она учицца к бопщикам да блюзменам – пианисту Барри Харрису, флейтистам Джеймсу Ньютону, Фрэнку Вессу и Джеймсу Муди. А потом услыхала она авангардного Стива Лэйси – и вот, опять ей откровение было. И дали ей степуху казённую, и поехала она до городу Парижу осваивать сопрано-сакс под его чутким руководством. И писалась она себе с разными американскими и канадскими именитыми пост-бопщиками, и в ус не дула, за неимением такового, а дула поочерёдно во флейту и во сопрано в саксофон. И вышла она замуж за любимого человека, канадского трубача Ларри Крамера, и повез ее молодожён в променад на остров Кубу... ну и всё. Человек опять попал. Хотя мы здесь её, конечно же, поймём Такая вот история постадийного излечения от хронического классицита методом свингования
Подсев на латинскую музыку, мадам трудолюбиво осваивает материал, и вскоре собирает состав, с мужем и канадским басистом, остальные – как есть кубинцы. "Spirits of Havana" (1991) влетает в 300-ку джазовых альбомов всех времен и народов и получает премию JUNO, а сама мадам получает погоняло "Гавана Джоана". Все ее дальнейшие "кубинские" и "бразильские" (равно как и пост-боповые) альбомы также очень тепло принимаюцца критикой и слушателями.
На Кубе Баннетт огорчило плохое состояние материальной базы тамошних музыкальных учебных заведений, и она мобилизует в Канаде добровольцев, которые деляцца запчастями и/или едут на Кубу ремонтировать людям инструменты. Из этой инициативы вырос целый некоммерческий фонд поддержки культурных связей со странами «Третьего мира». Еще один кубинский альбом получает JUNO – "Ritmo+Soul" (2001).
Имел успех снятый с ее участием документальный фильм "Spirits of Havana". Ну, и альбомы пишуцца, понятное дело – всех трех мастей. А за них и за прочие красивые культурные глаза всякие премии дают, звания почётные, и даже орден в 2005 г. дали – за вклад в культуру Канады... послушайте соло американца Ховарда Джонсона на тубе на альбоме 2005 г. (еще одна премия JUNO) "Radio Guantanamo Blues..." – и, я думаю, вы одобрите решение канадского правительства Кстати, Джонсон тогда был уже седым ветераном – он когда-то одним из первых начал использовать тубу как солирующий инструмент в джазe... но ето уже другая песня, и такие песни можно спеть про многих соавторов Баннетт, в том числе и кубинских.
В общем, хорошая такая белая тетка. Побольше бы таких! [...] Не буду говорить здесь об отдельных альбомах – послушайте сами, я думаю, многое вам понравицца. Советую слушать в хронологическом порядке – слышно, как человек осваивает тему и вживаецца в материал.
(c) ToroDozer (Мамбо Трайб)
 
1996 - Jane Bunnett and the Cuban Piano Masters
Jane Bunnett - Jane Bunnett and the Cuban Piano Masters
Жанр: Afro-Cuban Jazz, Post-Bop, World Fusion
Год издания диска: 1996
Издатель (лейбл): World Pacific
Номер по каталогу: CDP 7243 8 32695 2 5
Аудиокодек: APE (*.ape)
Тип рипа: image+.cue
Битрейт аудио: lossless
Продолжительность: 62:09
Источник (релизер): dreadbull (hqshare)
Наличие сканов в содержимом раздачи: да
Треклист:
01. Dialogos (Vitier) - 6:09
02. Son de la Loma (Matamoros) - 5:01
03. Poems of the Soul - Guantanamera (Vitier-Fernandez) - 6:39
04. Caleidoscopio (Vitier) - 8:36
05. Como Fue (Duarte) - 3:49
06. Fugado y Son Nocturno (Vitier) - 7:14
07. Social Club Buena Vista (Lopez) - 4:30
08. Miradas Furtivas (Vitier) - 9:08
09. Midnight Theme (Flynn) - 4:52
10. Tony y Jesusito (Rojas) - 5:24
Состав:
Jane Bunnett - soprano saxophone, flute
Jose Maria Vitier - piano
Frank Emilio Flynn - piano
Carlitos del Puerto - acoustic bass
Recorded in Toronto, Canada at Glenn Gould Studio, September 15-16, 1993.
 
Лог создания рипа
EAC extraction logfile from 22. February 2011, 16:06 for CD
Jane Bunnett / Jane Bunnett and the Cuban Piano Masters
Used drive : ASUS DRW-22B2L Adapter: 0 ID: 1
Read mode : Secure with NO C2, accurate stream, disable cache
Read offset correction : 6
Overread into Lead-In and Lead-Out : No
Used output format : Internal WAV Routines
44.100 Hz; 16 Bit; Stereo
Other options :
Fill up missing offset samples with silence : Yes
Delete leading and trailing silent blocks : No
Installed external ASPI interface
Range status and errors
Selected range
Filename D:\Donkey Files\Jane Bunnett & the Cuban Piano Masters (1996, World Pacific) [eac-ape-scans] byDrBull\CDImage.wav
Peak level 98.0 %
Range quality 99.9 %
CRC 9EAF1A44
Copy OK
No errors occured
End of status report
 
Содержание индексной карты (.CUE)
CATALOG 0724383269525
PERFORMER "Jane Bunnett"
TITLE "Jane Bunnett and the Cuban Piano Masters"
FILE "Jane Bunnett - Jane Bunnett and the Cuban Piano Masters.wav" WAVE
TRACK 01 AUDIO
TITLE "Dialogos"
PERFORMER "Jane Bunnett"
INDEX 01 00:00:00
TRACK 02 AUDIO
TITLE "Son de la Loma"
PERFORMER "Jane Bunnett"
INDEX 00 06:09:65
INDEX 01 06:14:35
TRACK 03 AUDIO
TITLE "Poems of the Soul - Guantanamera"
PERFORMER "Jane Bunnett"
INDEX 00 11:15:60
INDEX 01 11:21:40
TRACK 04 AUDIO
TITLE "Caleidoscopio"
PERFORMER "Jane Bunnett"
INDEX 00 18:00:72
INDEX 01 18:03:70
TRACK 05 AUDIO
TITLE "Como Fue"
PERFORMER "Jane Bunnett"
INDEX 00 26:40:37
INDEX 01 26:46:72
TRACK 06 AUDIO
TITLE "Fugado y Son Nocturno"
PERFORMER "Jane Bunnett"
INDEX 00 30:36:27
INDEX 01 30:39:67
TRACK 07 AUDIO
TITLE "Social Club Buena Vista"
PERFORMER "Jane Bunnett"
INDEX 00 37:54:27
INDEX 01 37:59:57
TRACK 08 AUDIO
TITLE "Miradas Furtivas"
PERFORMER "Jane Bunnett"
INDEX 00 42:30:55
INDEX 01 42:35:40
TRACK 09 AUDIO
TITLE "Midnight Theme"
PERFORMER "Jane Bunnett"
INDEX 00 51:43:50
INDEX 01 51:48:35
TRACK 10 AUDIO
TITLE "Tony y Jesusito"
PERFORMER "Jane Bunnett"
INDEX 00 56:41:17
INDEX 01 56:44:40
 
Review by Scott Yanow
Jane Bunnett, a talented flutist and soprano saxophonist from Canada, has consistently cut through red tape and bureaucracy in order to perform with Cuban musicians. For this project, Bunnett puts the focus on a pair of talented Cuban pianists (Jose Maria Vitier and Frank Emilio Flynn), performing in a variety of settings that also sometimes include bassist Carlitos del Puerto. The leader actually sits out on three of the ten songs. As strong as the playing is (and the interplay between Bunnett and the pianists is consistently delightful), the rich melodies (five by Vitier, one from Flynn and four obscurities) are most memorable. Influenced by classical music and the pianist's Cuban heritage, the highly appealing themes stick in one's mind long after the CD is finished. Several of the tunes could very well catch on as standards in the future, if enough musicians hear this CD. Recommended, as are all of Jane Bunnett's recordings to date.
 
1997 - Havana Flute Summit
Jane Bunnett - Havana Flute Summit
Жанр: Afro-Cuban Jazz, Post-Bop
Год издания диска: 1997
Издатель (лейбл): Naxos Jazz
Номер по каталогу: 86005-2
Аудиокодек: APE (*.ape)
Тип рипа: image+.cue
Битрейт аудио: lossless
Продолжительность: 65:19
Источник (релизер): dreadbull (hqshare)
Наличие сканов в содержимом раздачи: да
Треклист:
01. Maraca's Tumbao (Valle) - 7:50
02. Sunflower (for Don Pullen) (Bunnett) - 7:59
03. Celine's Cha Cha (Valle) - 6:35
04. Oscar's Descarga (Rodriguez-Duran) - 5:48
05. Amanezco (Duran) - 5:52
06. Expectation (Cramer) - 8:11
07. Tumbao Flautero (Egues) - 5:43
08. Kamakaze Kat (Bunnett) - 9:00
09. Latin Jane (Valle) - 8:23
Состав:
Jane Bunnett, Orlando "Maraca" Valle, Celine Valle, Richard Egues - flute
Oscar Rodriguez - bass
Hilario Duran - piano
Roberto Vizcaino, Adel Gonzalez, Juan Carlos Rojas "El Peje" - percussion
Recorded at Egrem Studio, Havana, Cuba on April 3-5, 1996.
 
Лог создания рипа
EAC extraction logfile from 5. February 2009, 12:51 for CD
Havana Flute Summit / Jane Bunnett
Used drive : PLEXTOR DVDR PX-750A Adapter: 0 ID: 1
Read mode : Secure with NO C2, accurate stream, disable cache
Read offset correction : 102
Overread into Lead-In and Lead-Out : No
Used output format : Internal WAV Routines
44.100 Hz; 16 Bit; Stereo
Other options :
Fill up missing offset samples with silence : Yes
Delete leading and trailing silent blocks : No
Installed external ASPI interface
Range status and errors
Selected range
Filename E:\Donkey Files\Jane Bunnett - Havana Flute Summit (1997, Naxos Jazz) [eac-ape-scans]\CDImage.wav
Peak level 100.0 %
Range quality 100.0 %
CRC D671F631
Copy OK
No errors occured
End of status report
 
Содержание индексной карты (.CUE)
PERFORMER "Jane Bunnett"
TITLE "Havana Flute Summit"
FILE "Jane Bunnett - Havana Flute Summit.wav" WAVE
TRACK 01 AUDIO
TITLE "Maraca's Tumbao"
PERFORMER "Jane Bunnett"
ISRC HKI199624101
INDEX 01 00:00:00
TRACK 02 AUDIO
TITLE "Sunshower (for Don Pullen)"
PERFORMER "Jane Bunnett"
ISRC HKI199624102
INDEX 00 07:47:30
INDEX 01 07:49:70
TRACK 03 AUDIO
TITLE "Celine's Cha Cha"
PERFORMER "Jane Bunnett"
ISRC HKI199624103
INDEX 00 15:46:52
INDEX 01 15:49:20
TRACK 04 AUDIO
TITLE "Oscar's Descarga"
PERFORMER "Jane Bunnett"
ISRC HKI199624104
INDEX 00 22:21:54
INDEX 01 22:25:67
TRACK 05 AUDIO
TITLE "Amanezco"
PERFORMER "Jane Bunnett"
ISRC HKI199624105
INDEX 00 28:09:60
INDEX 01 28:11:50
TRACK 06 AUDIO
TITLE "Expectation"
PERFORMER "Jane Bunnett"
ISRC HKI199624106
INDEX 00 34:01:40
INDEX 01 34:04:50
TRACK 07 AUDIO
TITLE "Tumbao Flautero"
PERFORMER "Jane Bunnett"
ISRC HKI199624107
INDEX 00 42:12:60
INDEX 01 42:14:40
TRACK 08 AUDIO
TITLE "Kamakaze Kat"
PERFORMER "Jane Bunnett"
ISRC HKI199624108
INDEX 00 47:55:60
INDEX 01 47:59:32
TRACK 09 AUDIO
TITLE "Latin Jane"
PERFORMER "Jane Bunnett"
ISRC HKI199624109
INDEX 00 56:56:10
INDEX 01 56:59:52
 
Review by Janet Rosen
Afro-Cuban music offers the flute one of its few opportunities to shed its prim and proper persona and cut loose. Here four maestros joined forces in a recording studio in Havana during a three-day session: noted jazz flautist Jane Bunnett; two major forces in the history of Cuban music, "Maraca" and Richard Egues; the former's protege, Celine Valle. Nonpareil Latin jazz pianist Hilario Duran provides an inventive, solid underpinning and works with the percussion section to set grooves that just don't quit, while the flutes soar exultantly above it all.
 
2000 - Ritmo+Soul
Jane Bunnett & the Spirits of Havana - Ritmo+Soul
Жанр: Post-Bop, World Fusion, Cuban Jazz
Год издания диска: 2000
Издатель (лейбл): Blue Note
Номер по каталогу: 72435-24456-2-2
Аудиокодек: APE (*.ape)
Тип рипа: image+.cue
Битрейт аудио: lossless
Продолжительность: 70:55
Источник (релизер): dreadbull (hqshare)
Наличие сканов в содержимом раздачи: да
Треклист:
01. Santos Suarez (Cramer-Bunnett) - 6:30
02. Joyful Noise (Bunnett-Cramer) - 8:35
03. The River (El Rio) (Bunnett) - 10:25
04. Osain (Trad.) - 3:53
05. Drume Negrita (Trad.) - 9:59
06. Journey Back (Cramer) - 5:54
07. 3 Voices One Spirit (Bunnett) - 5:18
08. Hebioso (Trad.) - 6:56
09. Francisco's Dream (Bunnett-Cramer) - 12:56
Состав:
Jane Bunnett - soprano sax, flute
Larry Cramer- trumpet
Hilario Duran - piano, voice
Roberto Occhipinti - acoustic bass
Njacko Backo - kalimba, voice
Ernest "El Gato" Gatell - batas, voice
Dean Bowman - voice
Dafnis Prieto - drums
Lucumi - batas, congas
Pancho Quinto - batas, cajone, congas
Recorded on September 19-21, 2000 at Wellesley Sound Studios, Toronto.
 
Лог создания рипа
EAC extraction logfile from 18. November 2008, 14:12 for CD
Jane Bunnett & the Spirits of Havana / Ritmo + Soul
Used drive : PLEXTOR DVDR PX-750A Adapter: 0 ID: 1
Read mode : Secure with NO C2, accurate stream, disable cache
Read offset correction : 102
Overread into Lead-In and Lead-Out : No
Used output format : Internal WAV Routines
44.100 Hz; 16 Bit; Stereo
Other options :
Fill up missing offset samples with silence : Yes
Delete leading and trailing silent blocks : No
Installed external ASPI interface
Range status and errors
Selected range
Filename E:\Donkey Files\Jane Bunnett - Ritmo+Soul (2000, Blue Note) [eac-ape-covers]\CDImage.wav
Peak level 100.0 %
Range quality 100.0 %
CRC B23FD80D
Copy OK
No errors occured
End of status report
 
Содержание индексной карты (.CUE)
CATALOG 0724352445622
PERFORMER "Jane Bunnett & the Spirits of Havana"
TITLE "Ritmo+Soul"
FILE "Jane Bunnett - Ritmo+Soul.wav" WAVE
TRACK 01 AUDIO
TITLE "Santos Suarez"
PERFORMER "Jane Bunnett & the Spirits of Havana"
INDEX 01 00:00:00
TRACK 02 AUDIO
TITLE "Joyful Noise"
PERFORMER "Jane Bunnett & the Spirits of Havana"
INDEX 00 06:33:00
INDEX 01 06:34:22
TRACK 03 AUDIO
TITLE "The River / El Rio"
PERFORMER "Jane Bunnett & the Spirits of Havana"
INDEX 00 15:12:57
INDEX 01 15:14:17
TRACK 04 AUDIO
TITLE "Osain"
PERFORMER "Jane Bunnett & the Spirits of Havana"
INDEX 00 25:41:55
INDEX 01 25:43:07
TRACK 05 AUDIO
TITLE "Drume Negrita"
PERFORMER "Jane Bunnett & the Spirits of Havana"
INDEX 00 29:38:50
INDEX 01 29:39:52
TRACK 06 AUDIO
TITLE "Journey Back"
PERFORMER "Jane Bunnett & the Spirits of Havana"
INDEX 00 39:40:62
INDEX 01 39:42:47
TRACK 07 AUDIO
TITLE "3 Voices One Spirit"
PERFORMER "Jane Bunnett & the Spirits of Havana"
INDEX 00 45:39:72
INDEX 01 45:41:72
TRACK 08 AUDIO
TITLE "Hebioso"
PERFORMER "Jane Bunnett & the Spirits of Havana"
INDEX 00 51:02:15
INDEX 01 51:03:55
TRACK 09 AUDIO
TITLE "Fransisco's Dream"
PERFORMER "Jane Bunnett & the Spirits of Havana"
INDEX 00 58:02:10
INDEX 01 58:04:10
 
Review by Tim Sheridan
How does Bunnett create such a rootsy, authentic Cubano sound? Simple: she uses excellent Cuban musicians. This spirited album is brimming with bright rhythms and delicious melodies. And Bunnett's soprano sax offers a nice, lighthearted voice at the musical core. You can sense the positive energy created in the studio.
 
2002 - Cuban Odyssey
Jane Bunnett - Cuban Odyssey
Жанр: World Fusion, Afro-Cuban Jazz, Latin Jazz
Страна-производитель диска: Канада
Год издания диска: 2002
Издатель (лейбл): Blue Note
Номер по каталогу: 41992-2
Аудиокодек: APE (*.ape)
Тип рипа: image+.cue
Битрейт аудио: lossless
Продолжительность: 67:37
Источник (релизер): JamesBrown (hqshare)
Наличие сканов в содержимом раздачи: да
Треклист:
01. Arrival
02. Quitate el Chaqueton
03. A la Rumba
04. Suite Matanzas
05. Pensando en Jane
06. El Diablo
07. Nan Fonn Bwaa
08. Alabans
09. Prizon
10. Ron Con Ron
11. Movin On
 
Лог создания рипа
Exact Audio Copy V0.99 prebeta 4 from 23. January 2008
EAC extraction logfile from 18. November 2008, 13:02
Jane Bunnett / Cuban Odyssey
Used drive : PLEXTOR DVDR PX-750A Adapter: 2 ID: 1
Read mode : Secure
Utilize accurate stream : Yes
Defeat audio cache : Yes
Make use of C2 pointers : No
Read offset correction : 102
Overread into Lead-In and Lead-Out : No
Fill up missing offset samples with silence : Yes
Delete leading and trailing silent blocks : No
Null samples used in CRC calculations : Yes
Used interface : Native Win32 interface for Win NT & 2000
Used output format : Monkey's Audio Lossless Encoder v3.99 DLL
Sample format : Normal Lossless Compression
TOC of the extracted CD
Track | Start | Length | Start sector | End sector
---------------------------------------------------------
1 | 0:00.00 | 3:11.00 | 0 | 14324
2 | 3:11.00 | 6:09.38 | 14325 | 42037
3 | 9:20.38 | 8:13.13 | 42038 | 79025
4 | 17:33.51 | 12:20.17 | 79026 | 134542
5 | 29:53.68 | 10:03.56 | 134543 | 179823
6 | 39:57.49 | 6:30.45 | 179824 | 209118
7 | 46:28.19 | 3:31.29 | 209119 | 224972
8 | 49:59.48 | 2:02.51 | 224973 | 234173
9 | 52:02.24 | 4:41.73 | 234174 | 255321
10 | 56:44.22 | 7:50.05 | 255322 | 290576
11 | 64:34.27 | 3:03.14 | 290577 | 304315
Range status and errors
Selected range
Filename C:\Jane Bunnett - Cuban Odyssey.ape
Peak level 99.4 %
Range quality 100.0 %
Copy CRC 0FCB119F
Copy OK
No errors occurred
End of status report
 
Содержание индексной карты (.CUE)
REM GENRE Latin
REM DATE 2002
REM DISCID 990FD90B
REM COMMENT "ExactAudioCopy v0.99pb4"
PERFORMER "Jane Bunnett"
TITLE "Cuban Odyssey"
FILE "Jane Bunnett - Cuban Odyssey.wav" WAVE
TRACK 01 AUDIO
TITLE "Arrival"
PERFORMER "Jane Bunnett"
INDEX 01 00:00:00
TRACK 02 AUDIO
TITLE "Quitate el Chaqueton"
PERFORMER "Jane Bunnett"
INDEX 01 03:11:00
TRACK 03 AUDIO
TITLE "A la Rumba"
PERFORMER "Jane Bunnett"
INDEX 00 09:20:37
INDEX 01 09:20:38
TRACK 04 AUDIO
TITLE "Suite Matanzas"
PERFORMER "Jane Bunnett"
INDEX 01 17:33:51
TRACK 05 AUDIO
TITLE "Pensando en Jane"
PERFORMER "Jane Bunnett"
INDEX 00 29:47:42
INDEX 01 29:53:68
TRACK 06 AUDIO
TITLE "El Diablo"
PERFORMER "Jane Bunnett"
INDEX 00 39:56:33
INDEX 01 39:57:49
TRACK 07 AUDIO
TITLE "Nan Fonn Bwaa"
PERFORMER "Jane Bunnett"
INDEX 00 46:25:59
INDEX 01 46:28:19
TRACK 08 AUDIO
TITLE "Alabans"
PERFORMER "Jane Bunnett"
INDEX 00 49:59:07
INDEX 01 49:59:48
TRACK 09 AUDIO
TITLE "Prizon"
PERFORMER "Jane Bunnett"
INDEX 01 52:02:24
TRACK 10 AUDIO
TITLE "Ron Con Ron"
PERFORMER "Jane Bunnett"
INDEX 01 56:44:22
TRACK 11 AUDIO
TITLE "Movin On"
PERFORMER "Jane Bunnett"
INDEX 00 64:32:11
INDEX 01 64:34:27
 
Review by Ken Dryden
Jane Bunnett's love of Cuban music is demonstrated in this collaboration with over 80 Cuban musicians and her husband, trumpeter Larry Cramer. Although Bunnett is the leader, she is also very comfortable taking a backseat during numbers featuring the larger groups. Most tracks were recorded during their visit to Cuba as they moved around the country, covering traditional tunes such as the percussive and fun-filled "Quitate el Chaqueton," "A la Rhumba," and "El Diablo," with the infectious rhythm and heartfelt vocals adding to the fun of the sessions. Three songs feature a stunning ten-piece vocal choir, Desandann, who sing in Patios, the language of their Haitian ancestors. The session is highlighted by Bunnett's lyrical flute (especially on "Nan Fon Bwaa") and her spirited soprano sax (showcased on her originals "Arrival" and "Movin' On"). It is impossible to listen to this CD and not be caught up in the celebration; this highly recommended CD is easily one of Jane Bunnett's greatest accomplishments during her career.
 
Состав
Francisco Mela - drums
Hilario Duran
Jane Bunnett - soprano saxophone, flute
Santa Cruz
Amando Deudeu Sr.
Caridad
Chabalongo
David Virelles - piano
Ernesto "El Gato" Gatell
Guillermo Rubalcaba
Larry Cramer
Lazaro Rizo
Marcos Diaz,
Ne-ne
Papi Oviedo - tres
Roberto Occhipinti - acoustic bass
Thommy Rojas - trumpet
Palma - bass
Also: Los Munequitos De Matanzas, Grupo Vocal Descendann, Merceditas Valdes, Pancho Quinto, Bobby Carcasses, Los Naranjos
 
2002 - Spirituals & Dedications (with Dewey Redman, Stanley Cowell)
Jane Bunnett, Dewey Redman, Stanley Cowell - Spirituals & Dedications
Жанр: Vocal Jazz, Post-Bop
Страна-производитель диска: Канада
Год издания диска: 2002
Издатель (лейбл): Justin Time
Номер по каталогу: JUST 169-2
Аудиокодек: APE (*.ape)
Тип рипа: image+.cue
Битрейт аудио: lossless
Продолжительность: 64:53
Источник (релизер): dreadbull (hqshare)
Наличие сканов в содержимом раздачи: да
Треклист:
01. Don's Light (Bunnett) - 8:16
02. A Laugh for Rory (Kirk) - 5:35
03. I'm Gonna Tell God (Trad.) - 4:21
04. Illusion Suite (Bowman-Cowell) - 13:09
05. Shadrack (Trad.) - 2:33
06. Cal Massey (Cowell) - 5:48
07. Powerful Paul Robeson (Jordan) - 7:33
08. Nobody Knows (Trad.) - 4:21
09. Ecclusiastics (Bowman-Mingus) - 8:11
10. Sometimes I Feel Like a Motherless Child (Trad.) - 4:40
Состав:
Jane Bunnett - soprano sax (#1,7,10), flute (#2,4,6,9), bass flute (#9)
Larry Cramer - trumpet
Dewey Redman - tenor sax (#1,2,4,5,7-10)
Stanley Cowell - piano
Kieran Overs - bass
Mark McLean - drums
Dean Bowman - voice
Recorded at CBC Studio 211 on February 25-26, 2001.
 
Лог создания рипа
EAC extraction logfile from 31. May 2011, 16:03 for CD
Jane Bunnett, Stanley Cowell, Dewey Redman / Spirituals & Dedications
Used drive : ASUS DRW-22B2L Adapter: 0 ID: 1
Read mode : Secure with NO C2, accurate stream, disable cache
Read offset correction : 6
Overread into Lead-In and Lead-Out : No
Used output format : Internal WAV Routines
44.100 Hz; 16 Bit; Stereo
Other options :
Fill up missing offset samples with silence : Yes
Delete leading and trailing silent blocks : No
Installed external ASPI interface
Range status and errors
Selected range
Filename D:\Donkey Files\Jane Bunnett - Spirituals & Dedications (2002, Justin Time) [eac-ape-scans] byDrBull\CDImage.wav
Peak level 100.0 %
Range quality 100.0 %
CRC E286C8E6
Copy OK
No errors occured
End of status report
 
Содержание индексной карты (.CUE)
PERFORMER "Jane Bunnett"
TITLE "Spirituals & Dedications"
FILE "Jane Bunnett - Spirituals & Dedications.wav" WAVE
TRACK 01 AUDIO
TITLE "Don's Light"
PERFORMER "Jane Bunnett"
ISRC CA1B20113770
INDEX 01 00:00:00
TRACK 02 AUDIO
TITLE "A Laugh for Rory"
PERFORMER "Jane Bunnett"
ISRC CA1B20113780
INDEX 00 08:16:40
INDEX 01 08:18:47
TRACK 03 AUDIO
TITLE "I'm Gonna Tell God"
PERFORMER "Jane Bunnett"
ISRC CA1B20113790
INDEX 00 13:54:22
INDEX 01 13:57:35
TRACK 04 AUDIO
TITLE "Illusion Suite"
PERFORMER "Jane Bunnett"
ISRC CA1B20113800
INDEX 00 18:18:72
INDEX 01 18:21:50
TRACK 05 AUDIO
TITLE "Shadrack"
PERFORMER "Jane Bunnett"
ISRC CA1B20113810
INDEX 00 31:30:72
INDEX 01 31:33:50
TRACK 06 AUDIO
TITLE "Cal Massey"
PERFORMER "Jane Bunnett"
ISRC CA1B20113820
INDEX 01 34:08:12
TRACK 07 AUDIO
TITLE "Powerful Paul Robeson"
PERFORMER "Jane Bunnett"
ISRC CA1B20113830
INDEX 00 39:56:50
INDEX 01 39:59:27
TRACK 08 AUDIO
TITLE "Nobody Knows"
PERFORMER "Jane Bunnett"
ISRC CA1B20113840
INDEX 01 47:34:25
TRACK 09 AUDIO
TITLE "Ecclusiastics"
PERFORMER "Jane Bunnett"
ISRC CA1B20113850
INDEX 00 51:56:35
INDEX 01 51:57:62
TRACK 10 AUDIO
TITLE "Sometimes I Feel Like a Motherless Child"
PERFORMER "Jane Bunnett"
ISRC CA1B20113860
INDEX 00 60:09:52
INDEX 01 60:12:30
 
Review by Paula Edelstein
Spirituals & Dedications is a nod to a period in music's history when jazz reflected a strong connection to the church and its musical repertoire. This modern interpretation of the beauty and simplicity of the traditional hymn is brought to life by an eclectic collaboration among Jane Bunnett, Stanley Cowell, Larry Cramer, Mark McLean, Kieran Overs, and Dewey Redman. Together they perform the music of Rahsaan Roland Kirk, Charles Mingus, as well as several original compositions by members of the collective. Saxophonist Jane Bunnett has composed a remarkable tribute to pianist Don Pullen with "Don's Light," a slow, tranquil church mode that reflects the strong connection to the natural spirituality of the piano's white keys as played by Stanley Cowell and the gospel-tinged voice of Dean Bowman. "A Laugh for Rory" has an ingenious arrangement featuring Bunnett on flute and Dewey Redman on tenor saxophone with mutual impact by bassist Kieran Overs and Mark McLean on drums. The doctrine of effects is clearly present on this recording. For those seeking a different musical perspective on traditional hymns and the relationship between spirituality and emotions or jazz and gospel, look no further.
 
2004 - Red Dragonfly (aka Tombo)
Jane Bunnett - Red Dragonfly (aka Tombo)
Жанр: Modern Creative, Post-Bop
Страна-производитель диска: США
Год издания диска: 2004
Издатель (лейбл): Narada
Номер по каталогу: 72435 78055 2 0
Аудиокодек: APE (*.ape)
Тип рипа: image+.cue
Битрейт аудио: lossless
Продолжительность: 67:12
Источник (релизер): dreadbull (hqshare)
Наличие сканов в содержимом раздачи: да
Треклист:
01. Odira-E (Machado-Accioly) - 7:24
02. Red Dragonfly (aka Tombo) (Yamada) - 5:46
03. Heaven's Gate (Bunnett) - 5:59
04. Black Is the Color (Trad.) - 4:47
05. Witchi Tia To (Pepper) - 5:42
06. Maria la O (Lecuona) - 4:23
07. She's Like a Swallow (Trad.) - 7:04
08. Rabo de Nube (Rodriguez) - 4:32
09. Divule Oni (Trad.) - 4:31
10. Nkosi Sikelel'i Africa (Sontonga) - 6:59
11. Moon Over Ruined Castle (Taki) - 5:37
12. Un Canadien Errant (Carignan) - 4:25
Состав:
Jane Bunnett - soprano sax
Mark McLean - drums
David Virelles - piano
Larry Cramer - trumpet, flugelhorn
Kieran Overs - acoustic bass
Penderecki String Quartet:
Christine Vlajk - viola
Jerze Kaplanek - 1st violin
Jeremy Bell - 2nd violin
Simon Fryer - cello
Recorded at Studio 211, Toronto, Ontario, Canada.
 
Лог создания рипа
EAC extraction logfile from 24. May 2011, 16:02 for CD
Jane Bunnett / Red Dragonfly (Aka Tombo)
Used drive : ASUS DRW-22B2L Adapter: 0 ID: 1
Read mode : Secure with NO C2, accurate stream, disable cache
Read offset correction : 6
Overread into Lead-In and Lead-Out : No
Used output format : Internal WAV Routines
44.100 Hz; 16 Bit; Stereo
Other options :
Fill up missing offset samples with silence : Yes
Delete leading and trailing silent blocks : No
Installed external ASPI interface
Range status and errors
Selected range
Filename D:\Donkey Files\Jane Bunnett - Red Dragonfly aka Tombo (2004, Narada) [eac-ape-scans] byDrBull\CDImage.wav
Peak level 99.8 %
Range quality 100.0 %
CRC 15A500A2
Copy OK
No errors occured
End of status report
 
Содержание индексной карты (.CUE)
CATALOG 0724357805520
PERFORMER "Jane Bunnett"
TITLE "Red Dragonfly (Aka Tombo)"
FILE "Jane Bunnett - Red Dragonfly.wav" WAVE
TRACK 01 AUDIO
TITLE "Odira-E"
PERFORMER "Jane Bunnett"
INDEX 01 00:00:00
TRACK 02 AUDIO
TITLE "Red Dragonfly (aka Tombo)"
PERFORMER "Jane Bunnett"
INDEX 01 07:24:59
TRACK 03 AUDIO
TITLE "Heaven's Gate"
PERFORMER "Jane Bunnett"
INDEX 01 13:11:13
TRACK 04 AUDIO
TITLE "Black Is the Color"
PERFORMER "Jane Bunnett"
INDEX 01 19:10:37
TRACK 05 AUDIO
TITLE "Witchi Tia To"
PERFORMER "Jane Bunnett"
INDEX 01 23:57:54
TRACK 06 AUDIO
TITLE "Maria La O"
PERFORMER "Jane Bunnett"
INDEX 01 29:39:05
TRACK 07 AUDIO
TITLE "She's Like a Swallow"
PERFORMER "Jane Bunnett"
INDEX 01 34:02:32
TRACK 08 AUDIO
TITLE "Rabo de Nube"
PERFORMER "Jane Bunnett"
INDEX 01 41:06:21
TRACK 09 AUDIO
TITLE "Divule Oni"
PERFORMER "Jane Bunnett"
INDEX 01 45:38:54
TRACK 10 AUDIO
TITLE "Nkosi Sikelel'i Africa"
PERFORMER "Jane Bunnett"
INDEX 01 50:09:67
TRACK 11 AUDIO
TITLE "Moon over Ruined Castle"
PERFORMER "Jane Bunnett"
INDEX 01 57:09:74
TRACK 12 AUDIO
TITLE "Un Canadien Errant"
PERFORMER "Jane Bunnett"
INDEX 01 62:47:23
 
Review by Thom Jurek
Jane Bunnett's Red Dragonfly (aka Tombo) is one of those rare projects that may not be original in conception, but in execution becomes a great achievement. Bunnett and her band -- Larry Cramer, trumpet and flu"gelhorn; Kieran Overs, acoustic bass; David Virelles, piano; Mark McLean, drums -- team with the Penderecki String Quartet on a set that almost exclusively features startlingly fresh jazz revisions of songs from various world traditions. Each tune here was chosen not for its ability to be re-created in the jazz idiom, but simply for its subjective meaning to Bunnett. Simply put, this may be the most personal recording Bunnett has ever issued. Originally conceived as a set of folk songs to be performed as a soprano saxophone showcase (which is all she plays here), the process mutated into something more. These tunes retain their melodies and their heart, but they also become something more in this rich, sonorous atmosphere with lush, adventurous harmonies and deep, focused lyricism and rhythmic invention. There isn't a weak moment on this disc, but there are some standouts. "Black Is the Color (Of My True Love's Hair)" nods to Coltrane's read of "My Favorite Things," with expansive modal strings just above the rhythm section. The title track is derived from Kosaku Yamada's 1921 standard with its haunting string and piano intro. When Bunnett enters with the melody, she strikes the balance between East and West. The band redoes "Divule Oni" from Spirits of Havana with a radically different arrangement, one that showcases the melody over the rhythm and allows the strings to paint the gap. The South African folk song "Nkosi Sikelel'i Africa," with its dirgelike cadence and the strings playing an extrapolated harmony in unison with Bunnett's soprano, is just plain beautiful. But the finest selection is her gorgeous and deeply moving version of the late Jim Pepper's "Witchi-Tai-To" (derived from a Native American peyote chant), with dynamite playing from pianist Virelles. Bunnett's restrained, understated use of the melody in the head and in her solo brings to bear all the history Pepper was drawing from in his composition, as the strings shimmer through the background. The effect is one of heartbreaking beauty and grace. In sum, Bunnett and her band have once again shown exquisite taste, and have upped the bar of artistic excellence and integrity with a simply stunning set.
 
2008 - Embracing Voices
Jane Bunnett - Embracing Voices
Жанр: Post-Bop
Год издания диска: 2008
Издатель (лейбл): Sunnyside
Номер по каталогу: SSC 1209
Аудиокодек: APE (*.ape)
Тип рипа: image+.cue
Битрейт аудио: lossless
Продолжительность: 70:23
Источник (релизер): dreadbull (hqshare)
Наличие сканов в содержимом раздачи: да
Треклист:
01. Sway (Bunnett-Evans) - 5:59
02. Kalaidescope (Bunnett-Evans) - 6:12
03. Wongolo (Trad.) - 6:15
04. Serafina (Bunnett-Evans) - 4:30
05. If You Go Away (Brel-McKven) - 9:40
06. Pancho Quinto (Bunnett-Diaz) - 5:32
07. I Hear Voices (Bunnett-Desandann) - 6:00
08. Chen nan Ren (Protest Song) (Trad.) - 4:26
09. Egberto (Thompson) - 6:50
10. A Nu Danse (Bunnett) - 4:51
11. Pa gen Dlo (There's No Water) (Miranda-Gobemadores del Rocio) - 4:00
12. The Only One (Evans) - 6:08
Состав:
Jane Bunnett - flute, soprano saxophone
Larry Cramer - trumpet, flugelhorn (#1-3,6-10,12)
David Virelles - piano, marimba (#1,3-5,7,10,12)
Don Thompson - vibes (#1,2,6,7,9,10), piano (#2,9,12), marimba (#8), bass (#5,9)
Yunior Terry - acoustic bass (#1-4,6-8,10,12)
Jorge Torres (Papiosco) - bata (#2-5,7,8,10,12), percussion (#7,8,10,12)
Frank Durand - drums, marimba (#1-5,7-9,10,12)
Pablosky Rosales - tres guitar (#2-5,7-9,10,12)
Barry Schiffman - viola (#7)
Grupo Vocal Desandann - vocals
Kellylee Evans - vocals (#1,2,4,12)
Molly Johnson - vocals (#5)
Telmary - vocals, spoken words (#6)
Recorded on March 15-25, 2008 at Green Door Studio, Toronto, Ontario, Canada.
 
Лог создания рипа
EAC extraction logfile from 16. June 2011, 12:17 for CD
Jane Bunnett / Embracing Voices
Used drive : ASUS DRW-22B2L Adapter: 0 ID: 1
Read mode : Secure with NO C2, accurate stream, disable cache
Read offset correction : 6
Overread into Lead-In and Lead-Out : No
Used output format : Internal WAV Routines
44.100 Hz; 16 Bit; Stereo
Other options :
Fill up missing offset samples with silence : Yes
Delete leading and trailing silent blocks : No
Installed external ASPI interface
Range status and errors
Selected range
Filename D:\Donkey Files\Jane Bunnett - Embracing Voices (2008, Sunnyside) [eac-ape-scans] byDrBull\CDImage.wav
Peak level 94.9 %
Range quality 100.0 %
CRC 4310A859
Copy OK
No errors occured
End of status report
 
Содержание индексной карты (.CUE)
PERFORMER "Jane Bunnett"
TITLE "Embracing Voices"
FILE "Jane Bunnett - Embracing Voices.wav" WAVE
TRACK 01 AUDIO
TITLE "Sway"
PERFORMER "Jane Bunnett"
INDEX 01 00:00:00
TRACK 02 AUDIO
TITLE "Kalaidescope"
PERFORMER "Jane Bunnett"
INDEX 01 05:59:34
TRACK 03 AUDIO
TITLE "Wongolo"
PERFORMER "Jane Bunnett"
INDEX 01 12:11:63
TRACK 04 AUDIO
TITLE "Serafina"
PERFORMER "Jane Bunnett"
INDEX 01 18:26:31
TRACK 05 AUDIO
TITLE "If You Go Away"
PERFORMER "Jane Bunnett"
INDEX 01 22:56:44
TRACK 06 AUDIO
TITLE "Pancho Quinto"
PERFORMER "Jane Bunnett"
INDEX 01 32:36:52
TRACK 07 AUDIO
TITLE "I Hear Voices"
PERFORMER "Jane Bunnett"
INDEX 01 38:08:18
TRACK 08 AUDIO
TITLE "Chen nan Ren (Protest Song)"
PERFORMER "Jane Bunnett"
INDEX 01 44:08:35
TRACK 09 AUDIO
TITLE "Egberto"
PERFORMER "Jane Bunnett"
INDEX 01 48:34:29
TRACK 10 AUDIO
TITLE "A Nu Danse"
PERFORMER "Jane Bunnett"
INDEX 01 55:24:30
TRACK 11 AUDIO
TITLE "Pa gen Dlo (There's No Water)"
PERFORMER "Jane Bunnett"
INDEX 01 60:15:42
TRACK 12 AUDIO
TITLE "The Only One (For Sheila Jordan)"
PERFORMER "Jane Bunnett"
INDEX 01 64:15:45
 
Review by Ken Dryden
Canadian Jane Bunnett has distinguished herself as a soprano saxophonist and composer over a long period. Following her collaborations with the late pianist Don Pullen she was drawn to Cuban music, so she regularly incorporated it into her compositions and frequently used Cuban instrumentalists and vocalists. This session is a bit different from her earlier dates, as its main focus is on the Afro-Cuban/Haitian ten-voice a cappella choir Grupo Vocal Desandann, who piqued her interest with their inventive harmonies and ability to handle challenging rhythms. These spring 2008 sessions feature traditional Cuban and Haitian songs and originals by Bunnett with various lyricists, along with an original plus a surprising arrangement by fellow Canadian Don Thompson, who alternates between bass, piano, vibes, and marimba. Bunnett co-wrote the tricky "Kaleidoscope" with lead vocalist Kellylee Evans, a rhythmically complex piece with many sudden chord changes that Evans and the musicians master easily. Bunnett's lighthearted soprano and pianist David Virelles are briefly featured in the traditional piece "Wongolo," a showcase for Grupo Vocal Desandann. "If You Go Away" (written by Jacques Brel and poet Rod McKuen) is hardly the kind of piece that one would expect to hear on a jazz date, let alone a Cuban-flavored session, but Thompson's infectious arrangement and Molly Johnson's Billie Holiday-flavored vocal carry the day. Jane Bunnett continues to prove that jazz readily absorbs the best elements of any form of music with this fine effort.
Для тех, кто любит lossless
22:26
285
Нет комментариев. Ваш будет первым!