Поиск

(Afro-Cuban Jazz, World Fusion, Post-Bop) Dizzy Gillespie - To Bird With Love {1992} - 2003, FLAC (tracks+.cue), lossless

(Afro-Cuban Jazz, World Fusion, Post-Bop) Dizzy Gillespie - To Bird With Love {1992} - 2003, FLAC (tracks+.cue), lossless
Треклист:
•Dizzy Gillespie - To Bird With Love {1992}•
Жанр: Afro-Cuban Jazz, World Fusion, Post-Bop
Страна-производитель диска: Россия
Год издания: 2003
Аудиокодек: FLAC (*.flac)
Тип рипа: tracks+.cue
Битрейт аудио: lossless
Продолжительность: 01:04:21
Источник (релизер): Рип с диска.
Наличие сканов в содержимом раздачи: да
Треклист:
01. Billie's Bounce [15:29]
02. Bebop [11:53]
03. Ornithology [10:54]
04. Anthropology [11:01]
05. Oo Pa Pa Da [11:29]
06. The Diamond Jubilee Blues [01:53]
07. The Theme [01:39]
 
Лог создания рипа
Exact Audio Copy V1.0 beta 3 from 29. August 2011
EAC extraction logfile from 13. February 2013, 15:07
Dizzy Gillespie / To Bird With Love
Used drive : Optiarc DVD RW AD-5200A Adapter: 0 ID: 0
Read mode : Secure
Utilize accurate stream : Yes
Defeat audio cache : Yes
Make use of C2 pointers : No
Read offset correction : 48
Overread into Lead-In and Lead-Out : No
Fill up missing offset samples with silence : Yes
Delete leading and trailing silent blocks : No
Null samples used in CRC calculations : Yes
Used interface : Native Win32 interface for Win NT & 2000
Gap handling : Appended to previous track
Used output format : User Defined Encoder
Selected bitrate : 128 kBit/s
Quality : High
Add ID3 tag : No
Command line compressor : C:\Program Files\Exact Audio Copy\Flac\flac.exe
Additional command line options : -V -8 -T "Genre=%genre%" -T "Artist=%artist%" -T "Title=%title%" -T "Album=%albumtitle%" -T "Date=%year%" -T "Tracknumber=%tracknr%" -T "Comment=%comment%" %source%
TOC of the extracted CD
Track | Start | Length | Start sector | End sector
---------------------------------------------------------
1 | 0:00.00 | 15:29.32 | 0 | 69706
2 | 15:29.32 | 11:53.48 | 69707 | 123229
3 | 27:23.05 | 10:54.27 | 123230 | 172306
4 | 38:17.32 | 11:01.55 | 172307 | 221936
5 | 49:19.12 | 11:29.38 | 221937 | 273649
6 | 60:48.50 | 1:53.17 | 273650 | 282141
7 | 62:41.67 | 1:39.53 | 282142 | 289619
Track 1
Filename G:\2003.Dizzy Gillespie - To Bird With Love\01. Billie's Bounce.wav
Pre-gap length 0:00:02.00
Peak level 97.7 %
Extraction speed 2.8 X
Track quality 100.0 %
Test CRC 24B5246C
Copy CRC 24B5246C
Cannot be verified as accurate (confidence 15) [260FD9B5], AccurateRip returned [67ED4BF6] (AR v2)
Copy OK
Track 2
Filename G:\2003.Dizzy Gillespie - To Bird With Love\02. Bebop.wav
Pre-gap length 0:00:04.62
Peak level 97.7 %
Extraction speed 3.5 X
Track quality 100.0 %
Test CRC DB24909F
Copy CRC DB24909F
Cannot be verified as accurate (confidence 15) [61562D59], AccurateRip returned [DA9D1EEC] (AR v2)
Copy OK
Track 3
Filename G:\2003.Dizzy Gillespie - To Bird With Love\03. Ornithology.wav
Pre-gap length 0:00:07.48
Peak level 78.1 %
Extraction speed 3.8 X
Track quality 99.9 %
Test CRC 89217850
Copy CRC 89217850
Cannot be verified as accurate (confidence 15) [F7CE31AB], AccurateRip returned [97EB3A20] (AR v2)
Copy OK
Track 4
Filename G:\2003.Dizzy Gillespie - To Bird With Love\04. Anthropology.wav
Peak level 77.0 %
Extraction speed 4.3 X
Track quality 100.0 %
Test CRC C8D8C7E3
Copy CRC C8D8C7E3
Cannot be verified as accurate (confidence 15) [AADA70CE], AccurateRip returned [77C4A163] (AR v2)
Copy OK
Track 5
Filename G:\2003.Dizzy Gillespie - To Bird With Love\05. Oo Pa Pa Da.wav
Peak level 85.1 %
Extraction speed 4.4 X
Track quality 100.0 %
Test CRC 34A6DD9C
Copy CRC 34A6DD9C
Cannot be verified as accurate (confidence 15) [BF1B3E87], AccurateRip returned [03E8EAE6] (AR v2)
Copy OK
Track 6
Filename G:\2003.Dizzy Gillespie - To Bird With Love\06. The Diamond Jubilee Blues.wav
Pre-gap length 0:00:00.03
Peak level 85.1 %
Extraction speed 2.8 X
Track quality 99.9 %
Test CRC 0681099C
Copy CRC 0681099C
Cannot be verified as accurate (confidence 14) [C4ED3631], AccurateRip returned [154D119F] (AR v2)
Copy OK
Track 7
Filename G:\2003.Dizzy Gillespie - To Bird With Love\07. The Theme.wav
Pre-gap length 0:00:00.02
Peak level 85.1 %
Extraction speed 3.4 X
Track quality 100.0 %
Test CRC 4B84D5B4
Copy CRC 4B84D5B4
Cannot be verified as accurate (confidence 15) [5E63294F], AccurateRip returned [5E857B26] (AR v2)
Copy OK
No tracks could be verified as accurate
You may have a different pressing from the one(s) in the database
No errors occurred
End of status report
==== Log checksum 1D57661EB7636270CD2E02D57EC189D1FD7CF5F86BCD8C44693D7F40676DFE7E ====
 
Содержание индексной карты (.CUE)
REM GENRE Jazz
REM DATE 1992
REM DISCID 680F1507
REM COMMENT "ExactAudioCopy v1.0b3"
PERFORMER "Dizzy Gillespie"
TITLE "To Bird With Love"
FILE "01. Billie's Bounce.wav" WAVE
TRACK 01 AUDIO
TITLE "Billie's Bounce"
PERFORMER "Dizzy Gillespie"
INDEX 01 00:00:00
TRACK 02 AUDIO
TITLE "Bebop"
PERFORMER "Dizzy Gillespie"
INDEX 00 15:24:45
FILE "02. Bebop.wav" WAVE
INDEX 01 00:00:00
TRACK 03 AUDIO
TITLE "Ornithology"
PERFORMER "Dizzy Gillespie"
INDEX 00 11:46:00
FILE "03. Ornithology.wav" WAVE
INDEX 01 00:00:00
FILE "04. Anthropology.wav" WAVE
TRACK 04 AUDIO
TITLE "Anthropology"
PERFORMER "Dizzy Gillespie"
INDEX 01 00:00:00
FILE "05. Oo Pa Pa Da.wav" WAVE
TRACK 05 AUDIO
TITLE "Oo Pa Pa Da"
PERFORMER "Dizzy Gillespie"
INDEX 01 00:00:00
TRACK 06 AUDIO
TITLE "The Diamond Jubilee Blues"
PERFORMER "Dizzy Gillespie"
INDEX 00 11:29:35
FILE "06. The Diamond Jubilee Blues.wav" WAVE
INDEX 01 00:00:00
TRACK 07 AUDIO
TITLE "The Theme"
PERFORMER "Dizzy Gillespie"
INDEX 00 01:53:15
FILE "07. The Theme.wav" WAVE
INDEX 01 00:00:00
 
Состав
Personnel:
Dizzy Gillespie — tp
Jackie McLean, Antonio Hart, Paquito D'Rivera — alto sax
Benny Golson, Clifford Jordan, David Sanchez — tenor sax
Bobby McFerrin — literally (5)
Danilo Perez — piano
George Mraz — bass
Lewis Nash — drumsRecording Date: January 23-25, 1992.
09:18
311
Нет комментариев. Ваш будет первым!