Поиск

(Afro-Cuban Jazz, World Fusion, Latin Jazz) Mario Bauza & his Afro-Cuban Jazz Orchestra - My Time Is Now - 1993, FLAC (image+.cue), lossless

(Afro-Cuban Jazz, World Fusion, Latin Jazz) Mario Bauza & his Afro-Cuban Jazz Orchestra - My Time Is Now - 1993, FLAC (image+.cue), lossless
Треклист:
Mario Bauza & his Afro-Cuban Jazz Orchestra - My Time Is Now
Жанр: Afro-Cuban Jazz, World Fusion, Latin Jazz
Страна-производитель диска: USA
Год издания: 1993
Издатель (лейбл): Messidor
Номер по каталогу: 15824-2
Страна: Cuba
Аудиокодек: FLAC (*.flac)
Тип рипа: image+.cue
Битрейт аудио: lossless
Продолжительность: 00:45:35
Источник (релизер): dreadbull
Наличие сканов в содержимом раздачи: да
01. El Manisero [05:06]
02. Memories [04:45]
03. La Vida Es Un Sueno [03:14]
04. Jack The Knife [03:45]
05. Cachondo [05:16]
06. Asi No, Papa [04:56]
07. Ifa [05:13]
08. Somos Novios (Impossible) [02:59]
09. Paz Profundo [03:32]
10. Al Fin [02:55]
11. Yamasa [03:49] .
Recrded: Clinton Studios, NYC, in Dec 1992
 
Лог создания рипа
Exact Audio Copy V1.0 beta 3 from 29. August 2011
EAC extraction logfile from 20. March 2013, 15:31
Mario Bauzá / My Time Is Now
Used drive : ASUS DRW-22B2L Adapter: 0 ID: 0
Read mode : Secure
Utilize accurate stream : Yes
Defeat audio cache : Yes
Make use of C2 pointers : No
Read offset correction : 6
Overread into Lead-In and Lead-Out : No
Fill up missing offset samples with silence : Yes
Delete leading and trailing silent blocks : No
Null samples used in CRC calculations : Yes
Used interface : Native Win32 interface for Win NT & 2000
Used output format : User Defined Encoder
Selected bitrate : 128 kBit/s
Quality : High
Add ID3 tag : Yes
Command line compressor : C:\Program Files\FLAC\flac.exe
Additional command line options : -8 -V -T "ARTIST=%artist%" -T "TITLE=%title%" -T "ALBUM=%albumtitle%" -T "DATE=%year%" -T "TRACKNUMBER=%tracknr%" -T "GENRE=%genre%" -T "PERFORMER=%albuminterpret%" -T "COMPOSER=%composer%" %haslyrics%--tag-from-file=LYRICS="%lyricsfile%"%haslyrics% -T "ALBUMARTIST=%albumartist%" -T "DISCNUMBER=%cdnumber%" -T "TOTALDISCS=%totalcds%" -T "TOTALTRACKS=%numtracks%" -T "COMMENT=%comment%" %source% -o %dest%
TOC of the extracted CD
Track | Start | Length | Start sector | End sector
---------------------------------------------------------
1 | 0:00.32 | 5:09.25 | 32 | 23231
2 | 5:09.57 | 4:46.38 | 23232 | 44719
3 | 9:56.20 | 3:16.22 | 44720 | 59441
4 | 13:12.42 | 3:48.65 | 59442 | 76606
5 | 17:01.32 | 5:18.25 | 76607 | 100481
6 | 22:19.57 | 4:59.00 | 100482 | 122906
7 | 27:18.57 | 5:16.50 | 122907 | 146656
8 | 32:35.32 | 3:03.00 | 146657 | 160381
9 | 35:38.32 | 3:35.25 | 160382 | 176531
10 | 39:13.57 | 2:58.00 | 176532 | 189881
11 | 42:11.57 | 3:49.00 | 189882 | 207056
Range status and errors
Selected range
Filename F:\Donkey Files\Mario Bauza - My Time Is Now (1993, Messidor) [eac-flac-scans] byDrBull\My Time Is Now.wav
Peak level 100.0 %
Extraction speed 5.5 X
Range quality 100.0 %
Test CRC 97FAD385
Copy CRC 97FAD385
Copy OK
No errors occurred
AccurateRip summary
Track 1 accurately ripped (confidence 3) [E5F39DE5] (AR v1)
Track 2 accurately ripped (confidence 3) [ADC97C8D] (AR v1)
Track 3 accurately ripped (confidence 3) [87BEE752] (AR v1)
Track 4 accurately ripped (confidence 3) [52D7256A] (AR v1)
Track 5 accurately ripped (confidence 3) [ADC3068C] (AR v1)
Track 6 accurately ripped (confidence 3) [23BD00F7] (AR v1)
Track 7 accurately ripped (confidence 3) [B4BC08B9] (AR v1)
Track 8 accurately ripped (confidence 3) [A2EFC0F9] (AR v1)
Track 9 accurately ripped (confidence 3) [E7D8DB93] (AR v1)
Track 10 accurately ripped (confidence 3) [796DF30D] (AR v1)
Track 11 accurately ripped (confidence 3) [28272ECF] (AR v1)
All tracks accurately ripped
End of status report
==== Log checksum 954D4897A0F0D5F23E254BE4991BF4EE2ACBC096961058E34189C2BEFDE90758 ====
 
Содержание индексной карты (.CUE)
REM GENRE "Big Band; Jazz"
REM DATE 1993
REM DISCID 840AC80B
REM COMMENT "ExactAudioCopy v1.0b3"
CATALOG 0000000000000
PERFORMER "Mario Bauza"
TITLE "My Time Is Now"
FILE "My Time Is Now.flac" WAVE
TRACK 01 AUDIO
TITLE "El Manisero"
PERFORMER "Mario Bauza"
ISRC <cH^59200010
INDEX 00 00:00:00
INDEX 01 00:00:32
TRACK 02 AUDIO
TITLE "Memories"
PERFORMER "Mario Bauza"
ISRC <cH^59200020
INDEX 00 05:06:67
INDEX 01 05:09:57
TRACK 03 AUDIO
TITLE "La Vida Es Un Sueno"
PERFORMER "Mario Bauza"
ISRC <cH^59200030
INDEX 00 09:54:72
INDEX 01 09:56:20
TRACK 04 AUDIO
TITLE "Jack The Knife"
PERFORMER "Mario Bauza"
ISRC <cH^59200040
INDEX 00 13:10:70
INDEX 01 13:12:42
TRACK 05 AUDIO
TITLE "Cachondo"
PERFORMER "Mario Bauza"
ISRC <cH^59200050
INDEX 00 16:58:37
INDEX 01 17:01:32
TRACK 06 AUDIO
TITLE "Asi No, Papa"
PERFORMER "Mario Bauza"
ISRC <cH^59200060
INDEX 00 22:17:67
INDEX 01 22:19:57
TRACK 07 AUDIO
TITLE "Ifa"
PERFORMER "Mario Bauza"
ISRC <cH^59200070
INDEX 00 27:16:12
INDEX 01 27:18:57
TRACK 08 AUDIO
TITLE "Somos Novios (Impossible)"
PERFORMER "Mario Bauza"
ISRC <cH^59200080
INDEX 00 32:31:62
INDEX 01 32:35:32
TRACK 09 AUDIO
TITLE "Paz Profundo"
PERFORMER "Mario Bauza"
ISRC <cH^59200090
INDEX 00 35:35:20
INDEX 01 35:38:32
TRACK 10 AUDIO
TITLE "Al Fin"
PERFORMER "Mario Bauza"
ISRC <cH^59200100
INDEX 00 39:11:25
INDEX 01 39:13:57
TRACK 11 AUDIO
TITLE "Yamasa"
PERFORMER "Mario Bauza"
ISRC <cH^59200110
INDEX 00 42:09:22
INDEX 01 42:11:57
 
Состав
Mario Bauzá - musical director
Chico O'Farrill - arranger (#1,10)
Ray Santos - arranger (#3,4,6-8,11)
Victor Paz - 1st trumpet
Michael Mossman - 2nd trumpet, arranger (#9)
Daniel Colette - 3d trumpet
Manuel Duran - 4th trumpet
Gerry Chamberlain - 1st trombone
Noah Bless - 2nd trombone
Douglas Purviance - bass trombone
Rolando Briceño - 1st alto sax
Eddie Alex - 2nd alto sax
Dioris Rivera - 1st tenor sax
Enrique Fernandez - 2nd tenor sax
Pablo Calogero - baritone sax
Marcus Persiani - piano, arranger (#5)
Joe Santiago - acoustic bass
Bobby Sanabria - drums, timbales
Joe Gonzalez - congas
Carlos "Patato" Valdés - congas
José Mangual, Jr. - bongos
Milton Cardona - batá
Ray Diaz - guiro, tambora (#11)
Rudy Calzado - lead vocals
Graciela - lead vocals
Adela Dalto - background vocals
Yolanda Maldonado - background vocals
special guest on #2:
Paquito D'Rivera - clarinet, alto sax, arranger
11:00
371
Нет комментариев. Ваш будет первым!