Поиск

(Afro-Cuban Jazz, Salsa) [CD] Manny Oquendo & Libre - Los New Yorkinos! - 2000, FLAC (image+.cue), lossless

(Afro-Cuban Jazz, Salsa) [CD] Manny Oquendo & Libre - Los New Yorkinos! - 2000, FLAC (image+.cue), lossless
Треклист:
Manny Oquendo & Libre - Los New Yorkinos!
Жанр: Afro-Cuban Jazz, Salsa
Носитель: CD
Страна-производитель диска: США
Год издания: 2000
Издатель (лейбл): Milestone
Номер по каталогу: MCD-9307-2
Аудиокодек: FLAC (*.flac)
Тип рипа: image+.cue
Битрейт аудио: lossless
Продолжительность: 42:02
Источник (релизер): dreadbull (hqshare)
Наличие сканов в содержимом раздачи: да
Треклист:
01. Oquendo y Libre 6:05 salsa jam
02. Lester Leaps In /Lester Young/ 6:23 Latin jazz
03. Chiquilla ideal 6:07 mambo-son
04. Cuando se acabara 6:15 guajira-son
05. Quiereme y veras 3:55 bolero
06. No cuentes 6:44 guaracha-rumba
07. Muevete un poco 6:12 salsa jam
 
Лог создания рипа
EAC extraction logfile from 25. December 2008, 14:17 for CD
Manny Oquendo & Libre / Los New Yorkinos!
Used drive : PLEXTOR DVDR PX-750A Adapter: 0 ID: 1
Read mode : Secure with NO C2, accurate stream, disable cache
Read offset correction : 102
Overread into Lead-In and Lead-Out : No
Used output format : Internal WAV Routines
44.100 Hz; 16 Bit; Stereo
Other options :
Fill up missing offset samples with silence : Yes
Delete leading and trailing silent blocks : No
Installed external ASPI interface
Range status and errors
Selected range
Filename E:\Donkey Files\Manny Oquendo & Libre - Los New Yorkinos! (2000, Milestone) [eac-ape-scans]\CDImage.wav
Peak level 100.0 %
Range quality 100.0 %
CRC D78EE8B6
Copy OK
No errors occured
End of status report
 
Содержание индексной карты (.CUE)
REM GENRE Jazz
REM DATE 2000
PERFORMER "Manny Oquendo & Libre"
TITLE "Los New Yorkinos!"
FILE "Manny Oquendo & Libre - Los New Yorkinos!.wav" WAVE
TRACK 01 AUDIO
TITLE "Oquendo y Libre"
PERFORMER "Manny Oquendo & Libre"
INDEX 01 00:00:00
TRACK 02 AUDIO
TITLE "Lester Leaps In"
PERFORMER "Manny Oquendo & Libre"
INDEX 00 06:06:65
INDEX 01 06:09:02
TRACK 03 AUDIO
TITLE "Chiquilla Ideal"
PERFORMER "Manny Oquendo & Libre"
INDEX 00 12:33:30
INDEX 01 12:35:42
TRACK 04 AUDIO
TITLE "Cuando Se Acabara"
PERFORMER "Manny Oquendo & Libre"
INDEX 00 18:43:52
INDEX 01 18:45:52
TRACK 05 AUDIO
TITLE "Quiereme y Veras"
PERFORMER "Manny Oquendo & Libre"
INDEX 00 25:01:30
INDEX 01 25:03:42
TRACK 06 AUDIO
TITLE "No Cuentes"
PERFORMER "Manny Oquendo & Libre"
INDEX 00 29:00:55
INDEX 01 29:02:42
TRACK 07 AUDIO
TITLE "Muevete un Poco"
PERFORMER "Manny Oquendo & Libre"
INDEX 00 35:46:70
INDEX 01 35:48:50
 
Отчет CUETools
[CUETools log; Date: 31.05.2014 17:59:07; Version: 2.1.4]
[CTDB TOCID: 31BRC.i5FyTO4.fjCnfF6M6tfRI-] found.
Track | CTDB Status
1 | (1/1) Accurately ripped
2 | (1/1) Accurately ripped
3 | (1/1) Accurately ripped
4 | (1/1) Accurately ripped
5 | (1/1) Accurately ripped
6 | (1/1) Accurately ripped
7 | (1/1) Accurately ripped
[AccurateRip ID: 000ba29d-00457645-4e09d907] found.
Track [ CRC | V2 ] Status
01 [a7a9c1f6|b9420dda] (4+0/4) Accurately ripped
02 [a5e448c6|24bc09a7] (4+0/4) Accurately ripped
03 [09550763|9ceff2a2] (4+0/4) Accurately ripped
04 [44632a84|5e303b1c] (4+0/4) Accurately ripped
05 [044d72ae|d95f0ed1] (4+0/4) Accurately ripped
06 [1c674cd5|91c42bc8] (4+0/4) Accurately ripped
07 [a9983195|9563107d] (4+0/4) Accurately ripped
Track Peak [ CRC32 ] [W/O NULL] [ LOG ]
-- 100,0 [D78EE8B6] [8D55DF6F] CRC32
01 100,0 [2F26CEF3] [0D811759]
02 100,0 [F84AFFB7] [347ACE95]
03 100,0 [D4956D06] [8E5B495A]
04 100,0 [230967E2] [30CC80D4]
05 98,8 [E18D6FA6] [F2A6136C]
06 100,0 [FAAF3FEC] [98E24695]
07 100,0 [6142833F] [84CF5CD2]
 
Review by Richard S. Ginell
Manny Oquendo y Libre's previous Milestone album, On the Move!, was a crackling live date recorded in San Francisco -- a tough feat to beat -- and the band waited four years before they would try to follow it up. Yet the results are not so much a follow-up as they are a reprise; five of the seven tunes on the present CD were already heard on the live album. Also, according to bassist Andy Gonzales, this studio-bound album consists of remixes and overdubs as well as takes from earlier years that were never finished. So already one gets the feeling that this CD is a bit of a cheat, a stopgap until something new emerges. The five tunes are certainly worth repeating -- the mambo "Chiquilla Ideal" is a particularly memorable piece of material -- yet in each case, these studio versions sound somewhat inhibited and canned when compared to their exuberant live counterparts. The two tunes not included on the earlier CD are "Cuando se Acabara," a loping guajira, and "Quiereme y Veras," a moody bolero which is graced by the smoky-voiced vocalist Xiomara Lougart. New to the band is guitarist Octavio Kotan, who has a good sharp-edged feeling for the dance grooves, and Joe Locke contributes vibes and synthesizer washes. The upshot: If you have On The Move!, you really don't need this.
 
Состав
Manny Oquendo - leader, timbales, bongo, maracas, güiro;
Andy González - bass, musical director;
Willie Rodríguez - piano;
George Delgado - congas;
Angel "Papo" Vázquez, Norman Hogue, Leonard Pollara, Jimmy Bosch - trombones;
Octavio Kotan - guitar;
Jorge Maldonado - lead vocals (expt #5);
Joe Locke - vibes, synthesizer;
El Cacique - rap (#1);
Xiomara Lougart - vocal (#5);
Alex Norris - trumpet (#2).
15:37
331
Нет комментариев. Ваш будет первым!