Поиск

(Afro-Cuban Jazz, Post-Bop, Soul-Jazz, Jazz-Funk) [CD] Azar Lawrence - Summer Solstice (1975) - 2014 {UCCO-90360}, FLAC (tracks+.cue), lossless

(Afro-Cuban Jazz, Post-Bop, Soul-Jazz, Jazz-Funk) [CD] Azar Lawrence - Summer Solstice (1975) - 2014 {UCCO-90360}, FLAC (tracks+.cue), lossless
Треклист:
Azar Lawrence - Summer Solstice (1975) Жанр: Afro-Cuban Jazz, Post-Bop, Soul-Jazz, Jazz-Funk
Носитель: CD
Страна-производитель диска: Japan
Год издания: 2014
Издатель (лейбл): Prestige/Concord/Universal Music Japan
Номер по каталогу: UCCO-90360
Аудиокодек: FLAC (*.flac)
Тип рипа: tracks+.cue
Битрейт аудио: lossless
Продолжительность: 40:57
Rip by ruskaval
Наличие сканов в содержимом раздачи: да
Треклист:
01. From The Point Of Love (7:57)
02. Novo Ano (6:44)
03. From The Point Of Light (6:57)
04. Summer Solstice (9:30)
05. Highway (9:49)
Personnel:
Azar Lawrence - soprano and tenor sax, percussion
Raul de Souza - trombone
Gerald Hayes - flute
Amaury Tristao - acoustic guitar
Dom Salvador - piano
Ron Carter - bass
Guilherme Franco - drums, percussion
Albert Dailey - piano
Billy Hart - drums
 
 
Лог создания рипа
Exact Audio Copy V1.1 from 23. June 2015
EAC extraction logfile from 9. August 2015, 14:06
Azar Lawrence / Summer Solstice
Used drive : ATAPI iHAS124 B Adapter: 2 ID: 0
Read mode : Secure
Utilize accurate stream : Yes
Defeat audio cache : Yes
Make use of C2 pointers : No
Read offset correction : 6
Overread into Lead-In and Lead-Out : No
Fill up missing offset samples with silence : Yes
Delete leading and trailing silent blocks : No
Null samples used in CRC calculations : Yes
Used interface : Installed external ASPI interface
Gap handling : Appended to previous track
Used output format : User Defined Encoder
Selected bitrate : 1024 kBit/s
Quality : High
Add ID3 tag : No
Command line compressor : C:\Program Files (x86)\FLAC Frontend\tools\flac.exe
Additional command line options : -8 -V -T "ARTIST=%artist%" -T "TITLE=%title%" -T "ALBUM=%albumtitle%" -T "DATE=%year%" -T "TRACKNUMBER=%tracknr%" -T "TOTALTRACKS=%numtracks%" -T "GENRE=%genre%" -T "ALBUMARTIST=%albumartist%" -T "ALBUM ARTIST=%albumartist%" -T "COMMENT=EAC Secure Mode, Test & Copy, AccurateRip, FLAC -8" %source%
TOC of the extracted CD
Track | Start | Length | Start sector | End sector
---------------------------------------------------------
1 | 0:00.00 | 7:57.30 | 0 | 35804
2 | 7:57.30 | 6:43.41 | 35805 | 66070
3 | 14:40.71 | 6:57.37 | 66071 | 97382
4 | 21:38.33 | 9:30.05 | 97383 | 140137
5 | 31:08.38 | 9:48.39 | 140138 | 184276
Track 1
Filename M:\_EAC\Azar Lawrence - Summer Solstice (1975) [FLAC] {2014 Japan Rare Groove Funk Best Collection 1000}\01 - From The Point Of Love.wav
Pre-gap length 0:00:02.00
Peak level 98.8 %
Extraction speed 3.4 X
Track quality 99.9 %
Test CRC 345934D6
Copy CRC 345934D6
Cannot be verified as accurate (confidence 1) [49D7F990], AccurateRip returned [AC6DB34C] (AR v2)
Copy OK
Track 2
Filename M:\_EAC\Azar Lawrence - Summer Solstice (1975) [FLAC] {2014 Japan Rare Groove Funk Best Collection 1000}\02 - Novo Ano.wav
Pre-gap length 0:00:01.16
Peak level 98.8 %
Extraction speed 4.5 X
Track quality 100.0 %
Test CRC 282FE44E
Copy CRC 282FE44E
Cannot be verified as accurate (confidence 1) [3B16C8B3], AccurateRip returned [C9D97EC2] (AR v2)
Copy OK
Track 3
Filename M:\_EAC\Azar Lawrence - Summer Solstice (1975) [FLAC] {2014 Japan Rare Groove Funk Best Collection 1000}\03 - From The Point Of Light.wav
Pre-gap length 0:00:01.72
Peak level 100.0 %
Extraction speed 5.1 X
Track quality 100.0 %
Test CRC B6C3A2FF
Copy CRC B6C3A2FF
Cannot be verified as accurate (confidence 1) [1738003B], AccurateRip returned [B036EF88] (AR v2)
Copy OK
Track 4
Filename M:\_EAC\Azar Lawrence - Summer Solstice (1975) [FLAC] {2014 Japan Rare Groove Funk Best Collection 1000}\04 - Summer Solstice.wav
Pre-gap length 0:00:02.14
Peak level 100.0 %
Extraction speed 5.2 X
Track quality 99.9 %
Test CRC 5F3E2D74
Copy CRC 5F3E2D74
Cannot be verified as accurate (confidence 1) [AF110426], AccurateRip returned [B650B4FA] (AR v2)
Copy OK
Track 5
Filename M:\_EAC\Azar Lawrence - Summer Solstice (1975) [FLAC] {2014 Japan Rare Groove Funk Best Collection 1000}\05 - Highway.wav
Pre-gap length 0:00:02.42
Peak level 100.0 %
Extraction speed 6.4 X
Track quality 100.0 %
Test CRC 66600EF1
Copy CRC 66600EF1
Cannot be verified as accurate (confidence 1) [E3046070], AccurateRip returned [51AE82D8] (AR v2)
Copy OK
No tracks could be verified as accurate
You may have a different pressing from the one(s) in the database
No errors occurred
End of status report
==== Log checksum 0989941147FED19A76D10B03F18105BF5E679263BCE6AAAA56FC04835C1D18B5 ====
 
Содержание индексной карты (.CUE)
REM GENRE Jazz
REM DATE 1975
REM DISCID 3C099905
REM COMMENT "ExactAudioCopy v1.1"
PERFORMER "Azar Lawrence"
TITLE "Summer Solstice"
FILE "01 - From The Point Of Love.wav" WAVE
TRACK 01 AUDIO
TITLE "From The Point Of Love"
PERFORMER "Azar Lawrence"
INDEX 01 00:00:00
TRACK 02 AUDIO
TITLE "Novo Ano"
PERFORMER "Azar Lawrence"
INDEX 00 07:56:14
FILE "02 - Novo Ano.wav" WAVE
INDEX 01 00:00:00
TRACK 03 AUDIO
TITLE "From The Point Of Light"
PERFORMER "Azar Lawrence"
INDEX 00 06:41:44
FILE "03 - From The Point Of Light.wav" WAVE
INDEX 01 00:00:00
TRACK 04 AUDIO
TITLE "Summer Solstice"
PERFORMER "Azar Lawrence"
INDEX 00 06:55:23
FILE "04 - Summer Solstice.wav" WAVE
INDEX 01 00:00:00
TRACK 05 AUDIO
TITLE "Highway"
PERFORMER "Azar Lawrence"
INDEX 00 09:27:38
FILE "05 - Highway.wav" WAVE
INDEX 01 00:00:00
19:52
278
Нет комментариев. Ваш будет первым!