Поиск

(Afro-Cuban Jazz) Perez Prado - Cuban Originals - 1999, APE (image+.cue), lossless

Треклист:
Perez Prado - Cuban Originals
Жанр: Afro-Cuban Jazz
Год выпуска диска: 1999
Производитель диска: RCA/BMG 74321-70046-2
Аудио кодек: APE
Тип рипа: image+.cue
Битрейт аудио: lossless
Продолжительность: 00:47:18
Треклист:
1. Besame Mucho [03:12]
2. Peanut Vendor (El Manisero) [03:01]
3. Maria Bonita [02:45]
4. Historia De Un Amor [02:50]
5. Sabor A Mi [02:09]
6. Frenesi [02:02]
7. Granada [04:31]
8. Cu Cu Ru Cu Cu Paloma [02:51]
9. Mambo #5 [02:47]
10. Lupita [02:53]
11. Esperame En El Cielo [02:52]
12. Mambo Del Politecnico [03:18]
13. Flight of the Bumble Bee [02:47]
14. Cerezo Rosa [03:05]
15. Que Rico El Mambo [03:07]
16. Mambo #8 [03:08]
Rip by stfine
 
log
Exact Audio Copy V0.99 prebeta 4 from 23. January 2008
EAC extraction logfile from 26. April 2009, 22:56
Perez Prado / Cuban Originals
Used drive : HL-DT-STDVD-RAM GH22NP20 Adapter: 1 ID: 1
Read mode : Secure
Utilize accurate stream : Yes
Defeat audio cache : Yes
Make use of C2 pointers : No
Read offset correction : 102
Overread into Lead-In and Lead-Out : No
Fill up missing offset samples with silence : Yes
Delete leading and trailing silent blocks : No
Null samples used in CRC calculations : Yes
Used interface : Installed external ASPI interface
Used output format : Internal WAV Routines
Sample format : 44.100 Hz; 16 Bit; Stereo
TOC of the extracted CD
Track | Start | Length | Start sector | End sector
---------------------------------------------------------
1 | 0:00.00 | 3:12.09 | 0 | 14408
2 | 3:12.09 | 3:01.00 | 14409 | 27983
3 | 6:13.09 | 2:45.41 | 27984 | 40399
4 | 8:58.50 | 2:50.33 | 40400 | 53182
5 | 11:49.08 | 2:09.35 | 53183 | 62892
6 | 13:58.43 | 2:02.23 | 62893 | 72065
7 | 16:00.66 | 4:31.72 | 72066 | 92462
8 | 20:32.63 | 2:51.47 | 92463 | 105334
9 | 23:24.35 | 2:47.54 | 105335 | 117913
10 | 26:12.14 | 2:53.61 | 117914 | 130949
11 | 29:06.00 | 2:52.50 | 130950 | 143899
12 | 31:58.50 | 3:18.07 | 143900 | 158756
13 | 35:16.57 | 2:47.39 | 158757 | 171320
14 | 38:04.21 | 3:05.39 | 171321 | 185234
15 | 41:09.60 | 3:07.13 | 185235 | 199272
16 | 44:16.73 | 3:08.29 | 199273 | 213401
Range status and errors
Selected range
Filename C:\RIC MASTER\Da mettere in rete\Perez Prado - Cuban Originals\Perez Prado - Cuban Originals.wav
Peak level 97.2 %
Range quality 100.0 %
Copy CRC 4FF7669A
Copy OK
No errors occurred
End of status report
 
cue
REM GENRE Latin
REM DATE 1999
REM DISCID D50B1D10
REM COMMENT "ExactAudioCopy v0.99pb4"
PERFORMER "Perez Prado"
TITLE "Cuban Originals"
FILE "Perez Prado - Cuban Originals.ape" WAVE
TRACK 01 AUDIO
TITLE "Besame Mucho"
PERFORMER "Perez Prado"
INDEX 01 00:00:00
TRACK 02 AUDIO
TITLE "Peanut Vendor (El Manisero)"
PERFORMER "Perez Prado"
INDEX 00 03:10:39
INDEX 01 03:12:09
TRACK 03 AUDIO
TITLE "Maria Bonita"
PERFORMER "Perez Prado"
INDEX 00 06:11:39
INDEX 01 06:13:09
TRACK 04 AUDIO
TITLE "Historia De Un Amor"
PERFORMER "Perez Prado"
INDEX 00 08:57:05
INDEX 01 08:58:50
TRACK 05 AUDIO
TITLE "Sabor A Mi"
PERFORMER "Perez Prado"
INDEX 00 11:47:38
INDEX 01 11:49:08
TRACK 06 AUDIO
TITLE "Frenesi"
PERFORMER "Perez Prado"
INDEX 00 13:56:73
INDEX 01 13:58:43
TRACK 07 AUDIO
TITLE "Granada"
PERFORMER "Perez Prado"
INDEX 00 15:59:21
INDEX 01 16:00:66
TRACK 08 AUDIO
TITLE "Cu Cu Ru Cu Cu Paloma"
PERFORMER "Perez Prado"
INDEX 00 20:31:18
INDEX 01 20:32:63
TRACK 09 AUDIO
TITLE "Mambo #5"
PERFORMER "Perez Prado"
INDEX 00 23:22:65
INDEX 01 23:24:35
TRACK 10 AUDIO
TITLE "Lupita"
PERFORMER "Perez Prado"
INDEX 00 26:10:44
INDEX 01 26:12:14
TRACK 11 AUDIO
TITLE "Esperame En El Cielo"
PERFORMER "Perez Prado"
INDEX 00 29:04:30
INDEX 01 29:06:00
TRACK 12 AUDIO
TITLE "Mambo Del Politecnico"
PERFORMER "Perez Prado"
INDEX 00 31:57:05
INDEX 01 31:58:50
TRACK 13 AUDIO
TITLE "Flight of the Bumble Bee"
PERFORMER "Perez Prado"
INDEX 00 35:15:12
INDEX 01 35:16:57
TRACK 14 AUDIO
TITLE "Cerezo Rosa"
PERFORMER "Perez Prado"
INDEX 00 38:02:51
INDEX 01 38:04:21
TRACK 15 AUDIO
TITLE "Que Rico El Mambo"
PERFORMER "Perez Prado"
INDEX 00 41:08:15
INDEX 01 41:09:60
TRACK 16 AUDIO
TITLE "Mambo #8"
PERFORMER "Perez Prado"
INDEX 00 44:15:28
INDEX 01 44:16:73
17:32
247
Нет комментариев. Ваш будет первым!