Поиск

(Afro-Cuban Jazz) Mario Bauza and The Afro-Cuban Jazz Orchestra - 944 Columbus - 1993, APE (image+.cue), lossless

Mario Bauzá and The Afro-Cuban Jazz Orchestra - 944 Columbus
Жанр: Afro-Cuban Jazz
Страна-производитель диска: USA
Год издания диска: 1993
Издатель (лейбл): Messidor
Номер по каталогу: 15828-2
Страна: Havana, Cuba
Аудиокодек: APE (*.ape)
Тип рипа: image+.cue
Битрейт аудио: lossless
Продолжительность: 00:47:23
Источник (релизер): dreadbull
Наличие сканов в содержимом раздачи: да
01. Cubauza [03:04]
02. Zambia [04:09]
03. La Clave De La Ya Ya [04:41]
04. Lourdes' Lullaby [06:29]
05. Congratulations To Someone [03:02]
06. Heatwave [03:55]
07. Canto Lucumi [07:42]
08. Night In Tunisia [04:12]
09. Biri Bi Kum Bi [03:43]
10. Chano [06:23]

Recorded at Clinton Studios, NYC, May 27 & 28, 1993
 
Лог создания рипа
Exact Audio Copy V1.0 beta 2 from 29. April 2011
EAC extraction logfile from 25. January 2012, 1:35
Bauza Mario & The Afro-Cuban Jazz Orchestra / 944 Columbus
Used drive : PLEXTOR DVDR PX-750A Adapter: 0 ID: 1
Read mode : Secure
Utilize accurate stream : Yes
Defeat audio cache : Yes
Make use of C2 pointers : No
Read offset correction : 102
Overread into Lead-In and Lead-Out : No
Fill up missing offset samples with silence : Yes
Delete leading and trailing silent blocks : No
Null samples used in CRC calculations : Yes
Used interface : Native Win32 interface for Win NT & 2000
Used output format : Internal WAV Routines
Sample format : 44.100 Hz; 16 Bit; Stereo
TOC of the extracted CD
Track | Start | Length | Start sector | End sector
---------------------------------------------------------
1 | 0:00.32 | 3:07.25 | 32 | 14081
2 | 3:07.57 | 4:11.63 | 14082 | 32969
3 | 7:19.45 | 4:44.12 | 32970 | 54281
4 | 12:03.57 | 6:32.00 | 54282 | 83681
5 | 18:35.57 | 3:05.25 | 83682 | 97581
6 | 21:41.07 | 3:58.50 | 97582 | 115481
7 | 25:39.57 | 7:45.00 | 115482 | 150356
8 | 33:24.57 | 4:15.25 | 150357 | 169506
9 | 37:40.07 | 3:46.00 | 169507 | 186456
10 | 41:26.07 | 6:23.25 | 186457 | 215206
Range status and errors
Selected range
Filename D:\Donkey Files\Mario Bauza - 944 Columbus (1993, Messidor) [eac-ape-scans] byDrBull\Bauza Mario & The Afro-Cuban Jazz Orchestra - 944 Columbus.wav
Peak level 99.6 %
Extraction speed 2.0 X
Range quality 99.9 %
Test CRC BF7F8436
Copy CRC BF7F8436
Copy OK
No errors occurred
AccurateRip summary
Track 1 accurately ripped (confidence 4) [463EABF1] (AR v1)
Track 2 accurately ripped (confidence 4) [8D0B66A9] (AR v1)
Track 3 accurately ripped (confidence 4) [7677199D] (AR v1)
Track 4 accurately ripped (confidence 4) [B82550A0] (AR v1)
Track 5 accurately ripped (confidence 4) [A64AF8A3] (AR v1)
Track 6 accurately ripped (confidence 4) [A8E56CF5] (AR v1)
Track 7 accurately ripped (confidence 4) [1B0251D4] (AR v1)
Track 8 accurately ripped (confidence 4) [DA434C92] (AR v1)
Track 9 accurately ripped (confidence 4) [6C3E56FC] (AR v1)
Track 10 accurately ripped (confidence 3) [3422C484] (AR v1)
All tracks accurately ripped
End of status report
==== Log checksum 41D58389C1E95E77461F1A5007570029FF2200DCF68C6923860E3A5CCF43A690 ====
 
Содержание индексной карты (.CUE)
REM GENRE "Latin Jazz"
REM DATE 1993
REM DISCID 710B350A
REM COMMENT "ExactAudioCopy v1.0b2"
CATALOG 0000000000000
PERFORMER "Bauza Mario & The Afro-Cuban Jazz Orchestra"
TITLE "944 Columbus"
FILE "Bauza Mario & The Afro-Cuban Jazz Orchestra - 944 Columbus.wav" WAVE
TRACK 01 AUDIO
TITLE "Cubauza"
PERFORMER "Bauza Mario & The Afro-Cuban Jazz Orchestra"
ISRC DEA689300200
INDEX 00 00:00:00
INDEX 01 00:00:32
TRACK 02 AUDIO
TITLE "Zambia"
PERFORMER "Bauza Mario & The Afro-Cuban Jazz Orchestra"
ISRC DEA689300210
INDEX 00 03:04:57
INDEX 01 03:07:57
TRACK 03 AUDIO
TITLE "La Clave De La Ya Ya"
PERFORMER "Bauza Mario & The Afro-Cuban Jazz Orchestra"
ISRC DEA689300220
INDEX 00 07:16:57
INDEX 01 07:19:45
TRACK 04 AUDIO
TITLE "Lourdes' Lullaby"
PERFORMER "Bauza Mario & The Afro-Cuban Jazz Orchestra"
ISRC DEA689300230
INDEX 00 12:00:70
INDEX 01 12:03:57
TRACK 05 AUDIO
TITLE "Congratulations To Someone"
PERFORMER "Bauza Mario & The Afro-Cuban Jazz Orchestra"
ISRC DEA689300240
INDEX 00 18:33:00
INDEX 01 18:35:57
TRACK 06 AUDIO
TITLE "Heatwave"
PERFORMER "Bauza Mario & The Afro-Cuban Jazz Orchestra"
ISRC DEA689300250
INDEX 00 21:38:37
INDEX 01 21:41:07
TRACK 07 AUDIO
TITLE "Canto Lucumi"
PERFORMER "Bauza Mario & The Afro-Cuban Jazz Orchestra"
ISRC DEA689300260
INDEX 00 25:36:62
INDEX 01 25:39:57
TRACK 08 AUDIO
TITLE "Night In Tunisia"
PERFORMER "Bauza Mario & The Afro-Cuban Jazz Orchestra"
ISRC DEA689300270
INDEX 00 33:22:07
INDEX 01 33:24:57
TRACK 09 AUDIO
TITLE "Biri Bi Kum Bi"
PERFORMER "Bauza Mario & The Afro-Cuban Jazz Orchestra"
ISRC DEA689300280
INDEX 00 37:37:25
INDEX 01 37:40:07
TRACK 10 AUDIO
TITLE "Chano"
PERFORMER "Bauza Mario & The Afro-Cuban Jazz Orchestra"
ISRC DEA689300290
INDEX 00 41:23:35
INDEX 01 41:26:07
 
Состав
Mario Bauzá - leader;
Ray Santos (#3,6), Chico O'Farrill (#5) - arrangers;
Victor Páz - 1st trumpet;
Michael Philip Mossman - 2nd trumpet, arranger (#1,4,7,8);
Daniel Colette - 3d trumpet;
Manny Durán - 4th trumpet, flugelhorn;
Gerry Chamberlain - 1st trombone;
Bruce Eidem - 2nd trombone;
Don Hayward - 3d trombone;
Rolando Briceño - 1st alto sax, soprano sax;
Pete Yellin - 2nd alto sax, clarinet;
Enrique Fernández - 1st tenor sax, flute;
Dioris Rivera - 2nd tenor sax, alto flute;
Pablo Calogero - baritone sax, bass clarinet;
Marcus Persiani - piano, arranger (#2,9);
Joe Santiago - acoustic bass, arranger (#10);
Bobby Sanábria - drums;
José Mangual, Jr. - bongos;
Carlos "Patato" Valdés - congas;
Joe González, José Alexis Díaz - percussion;
Graciela (#5,9), Rudy Calzado (#3,10) - lead vocals;
Yolanda Maldonado, Adela Dalto, Elvira Franco - background vocals.
02:24
390
Нет комментариев. Ваш будет первым!