Поиск

(Afro-Cuban Jazz) Machito - Kenya (1957) - 1999, WAVPack (image+.cue), lossless

Треклист:
Machito - Kenya
Жанр: Afro-Cuban Jazz
Год выпуска диска: 1999
Производитель диска: Roulette Jazz/Capitol (CDP 522668)
Аудио кодек: WAVPack
Тип рипа: image+.cue
Битрейт аудио: lossless
Продолжительность: 0:35:44
Трэклист:
01. Wild Jungle (2:48)
02. Congo Mulence (2:57)
03. Kenya (3:29)
04. Oyeme (3:14)
05. Holiday (2:49)
06. Cannonology (2:32)
07. Frenzy (2:43)
08. Blues А La Machito (3:03)
09. Conversation (2:58)
10. Tin Tin Deo (2:57)
11. Minor Rama (3:03)
12. Tururato (3:11)
Machito - leader
Mario Bauza - musical director, arranger, trumpet, (possibly) alto saxophone,
Francis Williams, Doc Cheatham, Paul Cohen, Paquito Davilla, Joe Livramento, Joe Newman - trumpets
Santo Russo, Eddie Bert, Bart Varsalona, Jimmy Russo, Rex Peer - trombones
Cannonball Adderley - alto saxophone
Ray Santos Jr., Jose Madera - tenor saxophone
Leslie Johnakins - baritone saxophone
Rene Hermandez - piano, arranger
Roberto Rodriguez - bass
Jose Mangual - bongos
Uba - timbales
Candido Camero, Carlos "Potato" Valder - conga
Jose Silva, Nilo Siera, Pedro Boulong - (possibly) percussion
Recorded on December 17, 19 & 24, 1957 at Metropolitan Studios, NY City
За рип спасибо bINkI
На замену рипу без лога: http://rutracker.org/forum/viewtopic.php?t=2876517
 
EAC Log
Exact Audio Copy V0.99 prebeta 4 from 23. January 2008
EAC extraction logfile from 13. May 2009, 17:27
Machito / Kenya
Used drive : HL-DT-STDVD-RAM GH22NP20 Adapter: 1 ID: 1
Read mode : Secure
Utilize accurate stream : Yes
Defeat audio cache : Yes
Make use of C2 pointers : No
Read offset correction : 102
Overread into Lead-In and Lead-Out : No
Fill up missing offset samples with silence : Yes
Delete leading and trailing silent blocks : No
Null samples used in CRC calculations : Yes
Used interface : Installed external ASPI interface
Used output format : Internal WAV Routines
Sample format : 44.100 Hz; 16 Bit; Stereo
Use compression offset : 102
TOC of the extracted CD
Track | Start | Length | Start sector | End sector
---------------------------------------------------------
1 | 0:00.00 | 2:47.67 | 0 | 12591
2 | 2:47.67 | 2:56.43 | 12592 | 25834
3 | 5:44.35 | 3:28.65 | 25835 | 41499
4 | 9:13.25 | 3:13.50 | 41500 | 56024
5 | 12:27.00 | 2:49.37 | 56025 | 68736
6 | 15:16.37 | 2:31.50 | 68737 | 80111
7 | 17:48.12 | 2:42.45 | 80112 | 92306
8 | 20:30.57 | 3:03.30 | 92307 | 106061
9 | 23:34.12 | 2:58.20 | 106062 | 119431
10 | 26:32.32 | 2:57.10 | 119432 | 132716
11 | 29:29.42 | 3:03.33 | 132717 | 146474
12 | 32:33.00 | 3:11.25 | 146475 | 160824
Range status and errors
Selected range
Filename C:\Documents and Settings\Proprietario.RT\Desktop\R\Machito - Kenya.wav
Peak level 98.8 %
Range quality 100.0 %
Copy CRC 2D51F8A1
Copy OK
No errors occurred
End of status report
15:29
286
Нет комментариев. Ваш будет первым!