Поиск

(Afro-Cuban Jazz) Los Munequitos de Matanzas - Rumba Caliente 88/77 - 1992, FLAC (image+.cue), lossless

Треклист:
Los Muñequitos de Matanzas – Rumba Caliente 88/77
Жанр: Afro-Cuban Jazz
Год издания диска: 1992
Издатель (лейбл): Qbadisc
Номер по каталогу: QB•9005
Аудиокодек: FLAC (*.flac)
Тип рипа: image+.cue
Битрейт аудио: lossless
Продолжительность: 54:24
Rip by dreadbull
Наличие сканов в содержимом раздачи: да
Треклист:
01. La Polemica (3:06)
02. Mi Arere (4:47)
03. Abacua #3 (4:31)
04. Parece Mentira (3:23)
05. En Opuestas Regiones (3:55)
06. Elegia A Los Columbianos (3:31)
07. Baba Cuello Mao (2:59)
08. El Tonelero (3:58)
09. El Currito (3:42)
10. Saludo Musical (2:40)
11. La Viola (3:49)
12. El Marino (3:33)
13. Amalia (2:43)
14. Vente Solito (3:48)
15. El Yerbero (3:59)
Rec.: EGREM Studios, Havana, Cuba, 1988 (#1-6) & 1977 (#7-15).
 
 
Лог создания рипа
Exact Audio Copy V1.0 beta 3 from 29. August 2011
EAC extraction logfile from 6. March 2012, 20:33
Los Muñequitos de Matanzas / Rumba Caliente 88/77
Used drive : ASUS DRW-22B2L Adapter: 0 ID: 1
Read mode : Secure
Utilize accurate stream : Yes
Defeat audio cache : Yes
Make use of C2 pointers : No
Read offset correction : 6
Overread into Lead-In and Lead-Out : No
Fill up missing offset samples with silence : Yes
Delete leading and trailing silent blocks : No
Null samples used in CRC calculations : Yes
Used interface : Native Win32 interface for Win NT & 2000
Used output format : User Defined Encoder
Selected bitrate : 128 kBit/s
Quality : High
Add ID3 tag : Yes
Command line compressor : C:\Program Files\FLAC\flac.exe
Additional command line options : -8 -V -T "ARTIST=%artist%" -T "TITLE=%title%" -T "ALBUM=%albumtitle%" -T "DATE=%year%" -T "TRACKNUMBER=%tracknr%" -T "GENRE=%genre%" -T "PERFORMER=%albuminterpret%" -T "COMPOSER=%composer%" %haslyrics%--tag-from-file=LYRICS="%lyricsfile%"%haslyrics% -T "ALBUMARTIST=%albumartist%" -T "DISCNUMBER=%cdnumber%" -T "TOTALDISCS=%totalcds%" -T "TOTALTRACKS=%numtracks%" -T "COMMENT=%comment%" %source% -o %dest%
TOC of the extracted CD
Track | Start | Length | Start sector | End sector
---------------------------------------------------------
1 | 0:00.50 | 3:06.07 | 50 | 14006
2 | 3:06.57 | 4:46.38 | 14007 | 35494
3 | 7:53.20 | 4:31.30 | 35495 | 55849
4 | 12:24.50 | 3:23.15 | 55850 | 71089
5 | 15:47.65 | 3:55.10 | 71090 | 88724
6 | 19:43.00 | 3:31.17 | 88725 | 104566
7 | 23:14.17 | 2:58.60 | 104567 | 117976
8 | 26:13.02 | 3:58.33 | 117977 | 135859
9 | 30:11.35 | 3:42.07 | 135860 | 152516
10 | 33:53.42 | 2:39.45 | 152517 | 164486
11 | 36:33.12 | 3:48.38 | 164487 | 181624
12 | 40:21.50 | 3:33.07 | 181625 | 197606
13 | 43:54.57 | 2:42.50 | 197607 | 209806
14 | 46:37.32 | 3:48.08 | 209807 | 226914
15 | 50:25.40 | 3:58.60 | 226915 | 244824
Range status and errors
Selected range
Filename D:\Donkey Files\Los Munequitos de Matanzas - Rumba Caliente 88-77 (1992, Qbadisc) [eac-flac-scans] byDrBull\Rumba Caliente.wav
Peak level 100.0 %
Extraction speed 3.1 X
Range quality 100.0 %
Test CRC 3E3623C7
Copy CRC 3E3623C7
Copy OK
No errors occurred
AccurateRip summary
Track 1 accurately ripped (confidence 2) [49595BDA] (AR v1)
Track 2 accurately ripped (confidence 3) [881BB78F] (AR v1)
Track 3 accurately ripped (confidence 2) [6130CEB6] (AR v1)
Track 4 accurately ripped (confidence 3) [BA92AD72] (AR v1)
Track 5 accurately ripped (confidence 2) [45A91279] (AR v1)
Track 6 accurately ripped (confidence 3) [B90B8212] (AR v1)
Track 7 accurately ripped (confidence 3) [1AFDBEF3] (AR v1)
Track 8 accurately ripped (confidence 3) [819E53EA] (AR v1)
Track 9 accurately ripped (confidence 3) [EEB712B2] (AR v1)
Track 10 accurately ripped (confidence 3) [B8DA1906] (AR v1)
Track 11 accurately ripped (confidence 3) [44F969FA] (AR v1)
Track 12 accurately ripped (confidence 3) [E7F5AC10] (AR v1)
Track 13 accurately ripped (confidence 3) [FAD410DD] (AR v1)
Track 14 accurately ripped (confidence 2) [AA7349BD] (AR v1)
Track 15 accurately ripped (confidence 3) [2EF9F201] (AR v1)
All tracks accurately ripped
End of status report
==== Log checksum 469FBA2DA16D4D42BC17F0CB56F6BC4BD6F46A6393B5242DB8C2599C427613FD ====
 
Содержание индексной карты (.CUE)
REM GENRE Latin Jazz
REM DATE 1992
REM DISCID E90CC00F
REM COMMENT ExactAudioCopy v1.0b3
PERFORMER "Los Munequitos de Matanzas"
TITLE "Rumba Caliente 88/77"
FILE "Rumba Caliente.flac" WAVE
TRACK 01 AUDIO
TITLE "La Polemica"
INDEX 00 00:00:00
INDEX 01 00:00:50
TRACK 02 AUDIO
TITLE "Mi Arere"
INDEX 00 03:04:32
INDEX 01 03:06:57
TRACK 03 AUDIO
TITLE "Abacua #3"
INDEX 00 07:50:70
INDEX 01 07:53:20
TRACK 04 AUDIO
TITLE "Parece Mentira"
INDEX 00 12:22:25
INDEX 01 12:24:50
TRACK 05 AUDIO
TITLE "En Opuestas Regiones"
INDEX 00 15:45:40
INDEX 01 15:47:65
TRACK 06 AUDIO
TITLE "Elegia A Los Columbianos "
INDEX 00 19:42:15
INDEX 01 19:43:00
TRACK 07 AUDIO
TITLE "Baba Cuello Mao"
INDEX 00 23:10:67
INDEX 01 23:14:17
TRACK 08 AUDIO
TITLE "El Tonelero"
INDEX 00 26:10:52
INDEX 01 26:13:02
TRACK 09 AUDIO
TITLE "El Currito"
INDEX 00 30:09:10
INDEX 01 30:11:35
TRACK 10 AUDIO
TITLE "Saludo Musical"
INDEX 00 33:51:17
INDEX 01 33:53:42
TRACK 11 AUDIO
TITLE "La Viola"
INDEX 00 36:30:62
INDEX 01 36:33:12
TRACK 12 AUDIO
TITLE "El Marino"
INDEX 00 40:19:25
INDEX 01 40:21:50
TRACK 13 AUDIO
TITLE "Amalia"
INDEX 00 43:53:07
INDEX 01 43:54:57
TRACK 14 AUDIO
TITLE "Vente Solito"
INDEX 00 46:35:07
INDEX 01 46:37:32
TRACK 15 AUDIO
TITLE "El Yerbero"
INDEX 00 50:23:15
INDEX 01 50:25:40
 
Состав
Diosdado Ramos Cruz (leader),
Alberto Romero Diaz (soloist),
Ricardo Cané Gómez, Israel Berriel Gonzalez, Israel Berriel Jimenez (vocals),
Ana Pérez Herrera (vocals, dancing),
Jesús Alfonso Miró, Gregorio Diaz Alfonso, Agustin Diaz Cano (percussion),
Bárbaro Ramos Aldazabal, Vivian Ramos Aldazabal (dancing),
Rafael Navarro Pujada (inspiration).
03:07
279
Нет комментариев. Ваш будет первым!