Поиск

(Afro-Cuban Jazz, Latin Jazz, World Fusion) Danilo Perez - PanaMonk - 1996, FLAC (tracks+.cue), lossless

(Afro-Cuban Jazz, Latin Jazz, World Fusion) Danilo Perez - PanaMonk - 1996, FLAC (tracks+.cue), lossless
Треклист:
Danilo Perez - PanaMonk
Жанр: Afro-Cuban Jazz, Latin Jazz, World Fusion
Год издания: 1996
Издатель (лейбл): Impulse!
Номер по каталогу: IMP 11902
Страна: США
Аудиокодек: FLAC (*.flac)
Тип рипа: tracks+.cue
Битрейт аудио: lossless
Продолжительность: 52:15
Источник (релизер): emule
Наличие сканов в содержимом раздачи: да
Треклист:
01. Monk's Mood 1 (Monk) - 0:43
02. PanaMonk (Perez) - 4:22
03. Bright Mississippi (Monk) - 5:40
04. Think of One (Monk) - 4:17
05. Mercedes' Mood (Perez) - 4:51
06. Hot Bean Strut (Perez) - 5:13
07. Reflections (Monk) - 5:55
08. September in Rio (Perez) - 3:55
09. Everything Happens to Me (Adair-Dennis-Perez) - 6:26
10. 'Round Midnight (Hanighen-Monk-Williams) - 5:26
11. Evidence/Four in One (Monk) - 4:44
12. Monk's Mood 2 (Monk) - 0:43
Состав:
Danilo Perez - piano
Terri Lyne Carrington - drums
Avishai Cohen - bass
Jeff Watts - drums
Olga Roman - vocals (#8)
Recorded at Power Station, New York on January 3-4, 1996.
 
Лог создания рипа
Exact Audio Copy V0.99 prebeta 4 from 23. January 2008
EAC extraction logfile from 12. April 2010, 8:36
Danilo Perez / PanaMonk
Used drive : HL-DT-STDVDRAM GSA-E10L Adapter: 2 ID: 0
Read mode : Secure
Utilize accurate stream : Yes
Defeat audio cache : Yes
Make use of C2 pointers : No
Read offset correction : 667
Overread into Lead-In and Lead-Out : No
Fill up missing offset samples with silence : Yes
Delete leading and trailing silent blocks : No
Null samples used in CRC calculations : Yes
Used interface : Installed external ASPI interface
Gap handling : Appended to previous track
Used output format : User Defined Encoder
Selected bitrate : 768 kBit/s
Quality : High
Add ID3 tag : No
Command line compressor : C:\Programmi\Exact Audio Copy\FLAC\FLAC.EXE
Additional command line options : -8 -V -T "artist=%a" -T "title=%t" -T "album=%g" -T "date=%y" -T "tracknumber=%n" -T "genre=%m" %s
TOC of the extracted CD
Track | Start | Length | Start sector | End sector
---------------------------------------------------------
1 | 0:00.32 | 0:42.58 | 32 | 3239
2 | 0:43.15 | 4:22.02 | 3240 | 22891
3 | 5:05.17 | 5:39.43 | 22892 | 48359
4 | 10:44.60 | 4:17.20 | 48360 | 67654
5 | 15:02.05 | 4:51.27 | 67655 | 89506
6 | 19:53.32 | 5:13.05 | 89507 | 112986
7 | 25:06.37 | 5:54.58 | 112987 | 139594
8 | 31:01.20 | 3:54.50 | 139595 | 157194
9 | 34:55.70 | 6:26.22 | 157195 | 186166
10 | 41:22.17 | 5:25.48 | 186167 | 210589
11 | 46:47.65 | 4:44.30 | 210590 | 231919
12 | 51:32.20 | 0:43.37 | 231920 | 235181
Track 1
Filename C:\EACrip\01 - Danilo Perez - Monk's Mood 1 .wav
Pre-gap length 0:00:02.42
Peak level 57.5 %
Track quality 100.0 %
Test CRC 111EDE51
Copy CRC 111EDE51
Accurately ripped (confidence 2) [CF9571E0]
Copy OK
Track 2
Filename C:\EACrip\02 - Danilo Perez - PanaMonk .wav
Peak level 100.0 %
Track quality 100.0 %
Test CRC 5E929F44
Copy CRC 5E929F44
Accurately ripped (confidence 2) [A4D8F5C2]
Copy OK
Track 3
Filename C:\EACrip\03 - Danilo Perez - Bright Mississippi .wav
Pre-gap length 0:00:00.60
Peak level 100.0 %
Track quality 100.0 %
Test CRC 9EFB02F7
Copy CRC 9EFB02F7
Accurately ripped (confidence 2) [A0097006]
Copy OK
Track 4
Filename C:\EACrip\04 - Danilo Perez - Think of One .wav
Pre-gap length 0:00:00.13
Peak level 100.0 %
Track quality 100.0 %
Test CRC 6BD1E464
Copy CRC 6BD1E464
Accurately ripped (confidence 2) [53FF00E6]
Copy OK
Track 5
Filename C:\EACrip\05 - Danilo Perez - Mercedes' Mood .wav
Pre-gap length 0:00:00.30
Peak level 100.0 %
Track quality 100.0 %
Test CRC 9E4AC45B
Copy CRC 9E4AC45B
Accurately ripped (confidence 2) [648C7617]
Copy OK
Track 6
Filename C:\EACrip\06 - Danilo Perez - Hot Bean Strut .wav
Pre-gap length 0:00:00.66
Peak level 100.0 %
Track quality 100.0 %
Test CRC 52619EC8
Copy CRC 52619EC8
Accurately ripped (confidence 2) [25E5BACD]
Copy OK
Track 7
Filename C:\EACrip\07 - Danilo Perez - Reflections .wav
Pre-gap length 0:00:01.20
Peak level 100.0 %
Track quality 100.0 %
Test CRC DC77C272
Copy CRC DC77C272
Accurately ripped (confidence 2) [F32C5F08]
Copy OK
Track 8
Filename C:\EACrip\08 - Danilo Perez - September in Rio .wav
Pre-gap length 0:00:00.64
Peak level 100.0 %
Track quality 100.0 %
Test CRC 50DABABA
Copy CRC 50DABABA
Accurately ripped (confidence 2) [B2E9B0FD]
Copy OK
Track 9
Filename C:\EACrip\09 - Danilo Perez - Everything Happens to Me .wav
Pre-gap length 0:00:00.66
Peak level 100.0 %
Track quality 100.0 %
Test CRC 3E9C8E24
Copy CRC 3E9C8E24
Accurately ripped (confidence 2) [E7FE033E]
Copy OK
Track 10
Filename C:\EACrip\10 - Danilo Perez - 'Round Midnight .wav
Pre-gap length 0:00:00.46
Peak level 81.8 %
Track quality 100.0 %
Test CRC 55458A49
Copy CRC 55458A49
Accurately ripped (confidence 2) [3CC82C37]
Copy OK
Track 11
Filename C:\EACrip\11 - Danilo Perez - Evidence , Four in One .wav
Peak level 100.0 %
Track quality 100.0 %
Test CRC E80E0F82
Copy CRC E80E0F82
Accurately ripped (confidence 2) [F067768C]
Copy OK
Track 12
Filename C:\EACrip\12 - Danilo Perez - Monk's Mood 2 .wav
Pre-gap length 0:00:00.37
Peak level 68.8 %
Track quality 99.7 %
Test CRC BEEF55E4
Copy CRC BEEF55E4
Accurately ripped (confidence 2) [3C8FF097]
Copy OK
All tracks accurately ripped
No errors occurred
End of status report
 
Содержание индексной карты (.CUE)
REM GENRE Jazz
REM DATE 1996
REM DISCID A90C3F0C
REM COMMENT "ExactAudioCopy v0.99pb4"
PERFORMER "Danilo Perez"
TITLE "PanaMonk"
FILE "01 - Monk's Mood 1.wav" WAVE
TRACK 01 AUDIO
TITLE "Monk's Mood 1"
PERFORMER "Danilo Perez"
PREGAP 00:00:32
INDEX 01 00:00:00
FILE "02 - PanaMonk.wav" WAVE
TRACK 02 AUDIO
TITLE "PanaMonk"
PERFORMER "Danilo Perez"
INDEX 01 00:00:00
TRACK 03 AUDIO
TITLE "Bright Mississippi"
PERFORMER "Danilo Perez"
INDEX 00 04:21:32
FILE "03 - Bright Mississippi.wav" WAVE
INDEX 01 00:00:00
TRACK 04 AUDIO
TITLE "Think of One"
PERFORMER "Danilo Perez"
INDEX 00 05:39:33
FILE "04 - Think of One.wav" WAVE
INDEX 01 00:00:00
TRACK 05 AUDIO
TITLE "Mercedes' Mood"
PERFORMER "Danilo Perez"
INDEX 00 04:16:72
FILE "05 - Mercedes' Mood.wav" WAVE
INDEX 01 00:00:00
TRACK 06 AUDIO
TITLE "Hot Bean Strut"
PERFORMER "Danilo Perez"
INDEX 00 04:50:52
FILE "06 - Hot Bean Strut.wav" WAVE
INDEX 01 00:00:00
TRACK 07 AUDIO
TITLE "Reflections"
PERFORMER "Danilo Perez"
INDEX 00 05:11:65
FILE "07 - Reflections.wav" WAVE
INDEX 01 00:00:00
TRACK 08 AUDIO
TITLE "September in Rio"
PERFORMER "Danilo Perez"
INDEX 00 05:54:10
FILE "08 - September in Rio.wav" WAVE
INDEX 01 00:00:00
TRACK 09 AUDIO
TITLE "Everything Happens to Me"
PERFORMER "Danilo Perez"
INDEX 00 03:54:00
FILE "09 - Everything Happens to Me.wav" WAVE
INDEX 01 00:00:00
TRACK 10 AUDIO
TITLE "'Round Midnight"
PERFORMER "Danilo Perez"
INDEX 00 06:25:62
FILE "10 - 'Round Midnight.wav" WAVE
INDEX 01 00:00:00
FILE "11 - Evidence-Four in One.wav" WAVE
TRACK 11 AUDIO
TITLE "Evidence/Four in One"
PERFORMER "Danilo Perez"
INDEX 01 00:00:00
TRACK 12 AUDIO
TITLE "Monk's Mood 2"
PERFORMER "Danilo Perez"
INDEX 00 04:44:02
FILE "12 - Monk's Mood 2.wav" WAVE
INDEX 01 00:00:00
 
Отчет CUETools
[CUETools log; Date: 15.03.2013 1:24:55; Version: 2.1.4]
Pregap length 00:00:32.
[CTDB TOCID: TWpFWm1gkzOwK.ZAWE56x2G68m8-] found.
Track | CTDB Status
1 | (1/1) Accurately ripped
2 | (1/1) Accurately ripped
3 | (1/1) Accurately ripped
4 | (1/1) Accurately ripped
5 | (1/1) Accurately ripped
6 | (1/1) Accurately ripped
7 | (1/1) Accurately ripped
8 | (1/1) Accurately ripped
9 | (1/1) Accurately ripped
10 | (1/1) Accurately ripped
11 | (1/1) Accurately ripped
12 | (1/1) Accurately ripped
[AccurateRip ID: 0016f82a-00dd05c7-a90c3f0c] found.
Track [ CRC | V2 ] Status
01 [cf9571e0|7a9e837e] (5+0/5) Accurately ripped
02 [a4d8f5c2|47b674c6] (5+0/5) Accurately ripped
03 [a0097006|0a8f7c48] (5+0/5) Accurately ripped
04 [53ff00e6|7b0b4fd9] (5+0/5) Accurately ripped
05 [648c7617|097eeebb] (5+0/5) Accurately ripped
06 [25e5bacd|e09f816a] (5+0/5) Accurately ripped
07 [f32c5f08|6527e2d7] (5+0/5) Accurately ripped
08 [b2e9b0fd|c66e34ff] (5+0/5) Accurately ripped
09 [e7fe033e|32c140b1] (5+0/5) Accurately ripped
10 [3cc82c37|c430e7a5] (5+0/5) Accurately ripped
11 [f067768c|48f95374] (5+0/5) Accurately ripped
12 [3c8ff097|bb595573] (5+0/5) Accurately ripped
Track Peak [ CRC32 ] [W/O NULL] [ LOG ]
-- 100,0 [5D772AEA] [0E4AF89A]
01 57,5 [111EDE51] [AB2FABF2] CRC32
02 100,0 [5E929F44] [417E22A8] CRC32
03 100,0 [9EFB02F7] [3E5FCBCA] CRC32
04 100,0 [6BD1E464] [EA67F444] CRC32
05 100,0 [9E4AC45B] [851ADDA5] CRC32
06 100,0 [52619EC8] [49DCBED1] CRC32
07 100,0 [DC77C272] [C5D913A6] CRC32
08 100,0 [50DABABA] [E29FB8DD] CRC32
09 100,0 [3E9C8E24] [8DA8AC68] CRC32
10 81,8 [55458A49] [C467351E] CRC32
11 100,0 [E80E0F82] [36EA0B73] CRC32
12 68,8 [BEEF55E4] [283309D5] CRC32
 
Review by Scott Yanow
This is one of the more interesting Thelonious Monk tribute albums of the 1990s. Pianist Danilo Perez does not really sound much like Monk except in a couple places on purpose, but he has clearly learned from Monk's music, particularly in his use of space and quirky dissonances. The trio performances range from respectful ballads and Latinized treatments of Monk tunes to originals that somehow fit logically into the mood of the set. Perez takes "'Round Midnight" and the two brief versions of "Monk's Mood" (which open and close the CD) unaccompanied, interacts closely with bassist Avishai Cohen on the other pieces, welcomes the haunting wordless vocal of Olga Roman to "September in Rio," and utilizes either Terri Lyne Carrington or Jeff Watts on the nine trio pieces. The music overall is adventurous, rhythmic, and quite joyful. A memorable outing by the talented Danilo Perez.
10:55
517
Нет комментариев. Ваш будет первым!