Поиск

(Afro-Cuban Jazz, Latin Jazz, Post-Bop, World Fusion) Jerry Gonzalez - Ya Yo Me Cure - 1979, FLAC (image+.cue), lossless

(Afro-Cuban Jazz, Latin Jazz, Post-Bop, World Fusion) Jerry Gonzalez - Ya Yo Me Cure - 1979, FLAC (image+.cue), lossless
Треклист:
Jerry Gonzalez - Ya Yo Me Cure
Жанр: Afro-Cuban Jazz, Latin Jazz, Post-Bop, World Fusion
Страна-производитель диска: США
Год издания: 2001
Издатель (лейбл): Sunnyside
Номер по каталогу: SSC 1068D
Страна: США
Аудиокодек: FLAC (*.flac)
Тип рипа: image+.cue
Битрейт аудио: lossless
Продолжительность: 47:44
Источник (релизер): dreadbull (hqshare)
Наличие сканов в содержимом раздачи: да
Треклист:
01. Agueybana Zemi (Rodriguez-Gonzalez) - 6:44
02. Nefertiti (Shorter) - 8:23
03. Ya Yo Me Cure (Rodriguez-Gonzalez) - 5:25
04. The Lucy Theme (Adamson-Daniel) - 2:59
05. Evidence (Monk) - 8:59
06. Baba Fieden Orisha (Rodriguez-Gonzalez) - 6:55
07. Caravan (Ellington) - 8:20
 
Лог создания рипа
EAC extraction logfile from 7. July 2011, 17:11 for CD
Jerry González / Ya Yo Me Curé
Used drive : ASUS DRW-22B2L Adapter: 0 ID: 1
Read mode : Secure with NO C2, accurate stream, disable cache
Read offset correction : 6
Overread into Lead-In and Lead-Out : No
Used output format : Internal WAV Routines
44.100 Hz; 16 Bit; Stereo
Other options :
Fill up missing offset samples with silence : Yes
Delete leading and trailing silent blocks : No
Installed external ASPI interface
Range status and errors
Selected range
Filename D:\Donkey Files\Jerry Gonzalez - Ya Yo Me Cure (1979; Sunnyside 2001) [eac-ape-scans] byDrBull\CDImage.wav
Peak level 94.8 %
Range quality 99.9 %
CRC FABEB99F
Copy OK
No errors occured
End of status report
 
Содержание индексной карты (.CUE)
PERFORMER "Jerry Gonzalez"
TITLE "Ya Yo Me Cure"
FILE "Jerry Gonzalez - Ya Yo Me Cure.wav" WAVE
TRACK 01 AUDIO
TITLE "Agueybana Zemi"
PERFORMER "Jerry Gonzalez"
INDEX 01 00:00:00
TRACK 02 AUDIO
TITLE "Nefertiti"
PERFORMER "Jerry Gonzalez"
INDEX 00 06:39:48
INDEX 01 06:43:48
TRACK 03 AUDIO
TITLE "Ya Yo Me Cure"
PERFORMER "Jerry Gonzalez"
INDEX 00 15:02:51
INDEX 01 15:06:51
TRACK 04 AUDIO
TITLE "The Lucy Theme"
PERFORMER "Jerry Gonzalez"
INDEX 00 20:27:14
INDEX 01 20:31:14
TRACK 05 AUDIO
TITLE "Evidence"
PERFORMER "Jerry Gonzalez"
INDEX 00 23:26:38
INDEX 01 23:30:38
TRACK 06 AUDIO
TITLE "Baba Fieden Orisha"
PERFORMER "Jerry Gonzalez"
INDEX 00 32:27:46
INDEX 01 32:29:46
TRACK 07 AUDIO
TITLE "Caravan"
PERFORMER "Jerry Gonzalez"
INDEX 00 39:20:36
INDEX 01 39:24:36
 
Лог проверки качества
auCDtect: CD records authenticity detector, version 0.8.2
Copyright (c) 2004 Oleg Berngardt. All rights reserved.
Copyright (c) 2004 Alexander Djourik. All rights reserved.
------------------------------------------------------------
Processing file: [Jerry Gonzalez - Ya Yo Me Cure.wav]
Detected average hi-boundary frequency: 2.084739e+004 Hz
Detected average lo-boundary frequency: 1.631357e+004 Hz
Detected average hi-cut frequency: 2.152462e+004 Hz
Detected average lo-cut frequency: 1.359617e+004 Hz
Maximum probablis boundary frequency: 2.189100e+004 Hz
Coefficient of nonlinearity of a phase: 2.671866e-002
First order smothness: 5.897637e-001
Second order smothness: 4.813871e-001
------------------------------------------------------------
This track looks like CDDA with probability 100%
 
Отчет CUETools
[CUETools log; Date: 30.09.2012 23:26:09; Version: 2.1.4]
[CTDB TOCID: xzjevfc0YfL.O5GVUGa2jEYTSo8-] disk not present in database.
[AccurateRip ID: 000cbccb-004c4b1c-4e0b3007] found.
Track [ CRC | V2 ] Status
01 [123b0500|f69ee3e5] (2+0/2) Accurately ripped
02 [ae22af38|a9e3a2b4] (2+0/2) Accurately ripped
03 [05416da5|2c6927bc] (2+0/2) Accurately ripped
04 [bbb239d4|797a536a] (2+0/2) Accurately ripped
05 [7fb427de|794edb85] (2+0/2) Accurately ripped
06 [709bc1db|89ddda3c] (2+0/2) Accurately ripped
07 [cd5306d1|38d78e51] (2+0/2) Accurately ripped
Track Peak [ CRC32 ] [W/O NULL] [ LOG ]
-- 94,8 [FABEB99F] [C155D3BD] CRC32
01 79,3 [3EF15833] [867E8C25]
02 94,8 [D183372A] [E77E7E95]
03 52,8 [C25E9008] [A759F439]
04 65,3 [DE7B3305] [7BB081E6]
05 81,6 [D96C1F7C] [82B3C352]
06 83,8 [F63F3267] [B115099E]
07 86,1 [0F3B7937] [31EA1494]
 
Review by Scott Yanow
The debut recording as a leader by Jerry Gonzalez, Ya Yo Me Cure features an early version of the trumpeter/Latin percussionist's Fort Apache Band (although it had not been named at this point). The advanced Latin jazz set (which has been reissued on CD) features such notable sidemen as trombonist Steve Turre, Mario Rivera on tenor, pianist Hilton Ruiz, singer Frankie Rodriguez and several percussionists. In addition to three originals by Rodriguez, the hot ensemble Latinizes such unlikely tunes as "Caravan," Wayne Shorter's "Nefertiti," Thelonious Monk's "Evidence" and "The Lucy Theme." Frequently exciting music.
 
Состав
Jerry Gonzalez - quinto, cascara, trumpet, fluegelhorn, bombo, coro
Frankie Rodriguez - lead vocal, bata, chekere, quinto (#5)
Andy Gonzalez - bass, coro
Vicente George - guiro, percussion
Gene Golden - bata, tresgolpe, chekere, coro
Nicky Marrero - timbales, chekere, guataca
Carlos Mestre - chekere, tumbador, coro
Edgardo Miranda - quartro, electric guitar
Mario Rivera - tenor saxophone, coro
Hilton Ruiz - piano, coro
Steve Turre - trombone, conch shells, percussion
Papo Vazquez - trombone, coro
Don Alias - trap drums (#5)
Milton Cardona - vocal harmony (#1)
Recorded on July - August, 1979 at Krog Hill Studios, Willow, NY.
Взамен ушедшей в архив.
05:09
385
Нет комментариев. Ваш будет первым!