Поиск

(Afro-Cuban Jazz, Latin Jazz) Paquito D'Rivera - A Night in Englewood - 1994, FLAC (tracks+.cue), lossless

(Afro-Cuban Jazz, Latin Jazz) Paquito D'Rivera - A Night in Englewood - 1994, FLAC (tracks+.cue), lossless
Треклист:
•Paquito D'Rivera - A Night in Englewood•
Жанр: Afro-Cuban Jazz, Latin Jazz
Страна-производитель диска: Россия
Год издания: 1994
Издатель (лейбл): Par Media Music
Номер по каталогу: ZZ-05GP0001713
Аудиокодек: FLAC (*.flac)
Тип рипа: tracks+.cue
Битрейт аудио: lossless
Продолжительность: 00:52:13
Источник (релизер): Рип с диска.
Наличие сканов в содержимом раздачи: да
Треклист:
01.Snow Samba {06:37}
02.Alma Llanera {06:15}
03.I Remember Diz {05:01}
04.Blues For Astor {06:31}
05.Modo Cubano {05:29}
06.La Puerta {03:16}
07.Bonitinha {05:01}
08.Milonga Para Paquito {06:52}
09.To Brenda With Love {07:08}
Personnel:
Paquito D'Rivera & The United Nations Orchestra:Paquito D'Rivera (alto saxophone, clarinet); Marshall McDonald (alto saxophone); Mario Rivera (tenor saxophone, flute); Andres Boiarsky, Steve Sacks (tenor saxophone); Mike Ponella, Diego Urcola (trumpet, flugelhorn); Byron Stripling (trumpet); William Cepeda (trombone, bass trombone); Conrad Herwig (trombone); Mike Orta, Carlos Franzetti (piano); Oscar Stagnaro (electric bass); Horacio "El Negro" Hernandez (drums, congas); Adam Cruz (drums); Bobby Sanabria (bongos, congas, bata, clave, guiro, percussion).Additional personnel:Claudio Roditi (trumpet); Slide Hampton (trombone); Raul Jaurena (bandoneon); Dave Samuels (vibraphone, marimba).
 
Лог создания рипа
Exact Audio Copy V1.0 beta 3 from 29. August 2011
Отчёт EAC об извлечении, выполненном 22. октября 2012, 14:33
Paquito D'Rivera & The United Nation Orchestra / A Night in Englewood
Дисковод: Optiarc DVD RW AD-5200A Adapter: 0 ID: 0
Режим чтения : Достоверность
Использование точного потока : Да
Отключение кэша аудио : Да
Использование указателей C2 : Нет
Коррекция смещения при чтении : 48
Способность читать области Lead-in и Lead-out : Нет
Заполнение пропущенных сэмплов тишиной : Да
Удаление блоков с тишиной в начале и конце : Нет
При вычислениях CRC использовались нулевые сэмплы : Да
Интерфейс : Встроенный Win32-интерфейс для Win NT/2000
Обработка зазоров : Добавлено к предыдущему треку
Выходной формат : Пользовательский кодировщик
Выбранный битрейт : 128 kBit/s
Качество : Высокий
Добавление ID3-тега : Нет
Утилита сжатия : C:\Program Files\Exact Audio Copy\Flac\flac.exe
Дополнительные параметры : -V -8 -T "Genre=%genre%" -T "Artist=%artist%" -T "Title=%title%" -T "Album=%albumtitle%" -T "Date=%year%" -T "Tracknumber=%tracknr%" -T "Comment=%comment%" %source%
TOC извлечённого CD
Трек | Старт | Длительность | Начальный сектор | Конечный сектор
---------------------------------------------------------------------
1 | 0:00.00 | 6:37.24 | 0 | 29798
2 | 6:37.24 | 6:15.41 | 29799 | 57964
3 | 12:52.65 | 5:01.13 | 57965 | 80552
4 | 17:54.03 | 6:31.06 | 80553 | 109883
5 | 24:25.09 | 5:29.04 | 109884 | 134562
6 | 29:54.13 | 3:16.54 | 134563 | 149316
7 | 33:10.67 | 5:01.39 | 149317 | 171930
8 | 38:12.31 | 6:52.66 | 171931 | 202896
9 | 45:05.22 | 7:08.03 | 202897 | 234999
Трек 1
Имя файла F:\1994.Paquito D'Rivera - A Night In Englewood\01. Snow Samba.wav
Длина предзазора 0:00:02.00
Пиковый уровень 98.2 %
Скорость извлечения 2.4 X
Качество трека 100.0 %
CRC теста 49E4B7F2
CRC копии 49E4B7F2
Точное извлечение (достоверность 2) [3A1DB7E7] (AR v1)
Копирование... OK
Трек 2
Имя файла F:\1994.Paquito D'Rivera - A Night In Englewood\02. Alma Llanera.wav
Пиковый уровень 100.0 %
Скорость извлечения 2.9 X
Качество трека 100.0 %
CRC теста 1C826B01
CRC копии 1C826B01
Точное извлечение (достоверность 2) [A6BF2609] (AR v1)
Копирование... OK
Трек 3
Имя файла F:\1994.Paquito D'Rivera - A Night In Englewood\03. I Remember Diz.wav
Пиковый уровень 93.2 %
Скорость извлечения 3.1 X
Качество трека 100.0 %
CRC теста 7CD6CCBF
CRC копии 7CD6CCBF
Точное извлечение (достоверность 2) [D678F6DF] (AR v1)
Копирование... OK
Трек 4
Имя файла F:\1994.Paquito D'Rivera - A Night In Englewood\04. Blues For Astor.wav
Пиковый уровень 100.0 %
Скорость извлечения 3.2 X
Качество трека 99.9 %
CRC теста 442FAA12
CRC копии 442FAA12
Точное извлечение (достоверность 2) [237D304F] (AR v1)
Копирование... OK
Трек 5
Имя файла F:\1994.Paquito D'Rivera - A Night In Englewood\05. Modo Cubano.wav
Пиковый уровень 98.7 %
Скорость извлечения 3.5 X
Качество трека 100.0 %
CRC теста AD7C9A36
CRC копии AD7C9A36
Точное извлечение (достоверность 2) [CA69BE3E] (AR v1)
Копирование... OK
Трек 6
Имя файла F:\1994.Paquito D'Rivera - A Night In Englewood\06. La Puerta.wav
Пиковый уровень 87.9 %
Скорость извлечения 3.4 X
Качество трека 100.0 %
CRC теста 8ABEFB58
CRC копии 8ABEFB58
Точное извлечение (достоверность 2) [F2274143] (AR v1)
Копирование... OK
Трек 7
Имя файла F:\1994.Paquito D'Rivera - A Night In Englewood\07. Bonitinha.wav
Пиковый уровень 100.0 %
Скорость извлечения 3.6 X
Качество трека 100.0 %
CRC теста 9CC8AFA0
CRC копии 9CC8AFA0
Точное извлечение (достоверность 2) [FDFC1090] (AR v1)
Копирование... OK
Трек 8
Имя файла F:\1994.Paquito D'Rivera - A Night In Englewood\08. Milonga Para Paquito.wav
Пиковый уровень 96.4 %
Скорость извлечения 3.7 X
Качество трека 100.0 %
CRC теста BFD39F2E
CRC копии BFD39F2E
Точное извлечение (достоверность 2) [C00A4B7B] (AR v1)
Копирование... OK
Трек 9
Имя файла F:\1994.Paquito D'Rivera - A Night In Englewood\09. To Brenda With Love.wav
Пиковый уровень 100.0 %
Скорость извлечения 3.6 X
Качество трека 100.0 %
CRC теста E3774F9B
CRC копии E3774F9B
Точное извлечение (достоверность 2) [A061532B] (AR v1)
Копирование... OK
Все треки извлечены точно
Ошибок не произошло
Конец отчёта
==== Контрольная сумма отчёта AAEBE219816BA88FCA2DDDFB0F2D20A98CDD3DE5277D3D46CC4C6DC4E2C94754 ====
 
Содержание индексной карты (.CUE)
REM GENRE Jazz
REM DATE 1994
REM DISCID 960C3D09
REM COMMENT "ExactAudioCopy v1.0b3"
PERFORMER "Paquito D'Rivera & The United Nation Orchestra"
TITLE "A Night in Englewood"
FILE "01. Snow Samba.wav" WAVE
TRACK 01 AUDIO
TITLE "Snow Samba"
PERFORMER "Paquito D'Rivera & The United Nation Orchestra"
INDEX 01 00:00:00
FILE "02. Alma Llanera.wav" WAVE
TRACK 02 AUDIO
TITLE "Alma Llanera"
PERFORMER "Paquito D'Rivera & The United Nation Orchestra"
INDEX 01 00:00:00
FILE "03. I Remember Diz.wav" WAVE
TRACK 03 AUDIO
TITLE "I Remember Diz"
PERFORMER "Paquito D'Rivera & The United Nation Orchestra"
INDEX 01 00:00:00
FILE "04. Blues For Astor.wav" WAVE
TRACK 04 AUDIO
TITLE "Blues For Astor"
PERFORMER "Paquito D'Rivera & The United Nation Orchestra"
INDEX 01 00:00:00
FILE "05. Modo Cubano.wav" WAVE
TRACK 05 AUDIO
TITLE "Modo Cubano"
PERFORMER "Paquito D'Rivera & The United Nation Orchestra"
INDEX 01 00:00:00
FILE "06. La Puerta.wav" WAVE
TRACK 06 AUDIO
TITLE "La Puerta"
PERFORMER "Paquito D'Rivera & The United Nation Orchestra"
INDEX 01 00:00:00
FILE "07. Bonitinha.wav" WAVE
TRACK 07 AUDIO
TITLE "Bonitinha"
PERFORMER "Paquito D'Rivera & The United Nation Orchestra"
INDEX 01 00:00:00
FILE "08. Milonga Para Paquito.wav" WAVE
TRACK 08 AUDIO
TITLE "Milonga Para Paquito"
PERFORMER "Paquito D'Rivera & The United Nation Orchestra"
INDEX 01 00:00:00
FILE "09. To Brenda With Love.wav" WAVE
TRACK 09 AUDIO
TITLE "To Brenda With Love"
PERFORMER "Paquito D'Rivera & The United Nation Orchestra"
INDEX 01 00:00:00
05:31
285
Нет комментариев. Ваш будет первым!