Поиск

(Afro-Cuban Jazz, Latin Jazz) Paquito D'Rivera - 40 Years Cuban Jam Session - 2004, FLAC (image+.cue) lossless

Треклист:
Paquito D'Rivera / 40 Years Cuban Jam Session
Жанр: Afro-Cuban Jazz, Latin Jazz
Страна-производитель диска: USA
Год издания диска: 2004
Издатель (лейбл): Pimienta Records Corp.
Номер по каталогу: 245 360 632-2
Страна: Cuba
Аудио кодек: FLAC (*.flac)
Тип рипа: image+.cue
Битрейт аудио: lossless
Продолжительность: 52:44
Источник (релизер): Рип выполнен собственноручно
Наличие сканов в содержимом раздачи: да
Треклист:
1. Descarga Para Banda Y Combo (composed by Enrique "Kike" Hernandez) - 5:22
2. Descarga '93 (composed by Israel "Cachao" Lopez, 1993, conducted by Paquito D'Rivera) - 6:47
3. Bolero Medley: Mi Mejor Cancion (composed by Jose Antonio Mendez, 1950) - 4:25
4. Bolero Medley: Ayer La Vi Llorar Novia Mia (composed by Jose Antonio Mendez, 1950) - 5:20
5. Fifty/Fifty (composed and conducted by Juanito Marquez) - 3:10
6. Despojo (composed by Leopoldo "Pucho" Escalante, 1988) - 6:12
7. Cuando Vuelva A Tu Lado (What a difference a day makes) (composed by Maria Grever) - 3:50
8. Guaguanjira (composed and conducted by Jesus Caunedo, 1993) - 3:10
9. Una Tarde En Alamar (composed by Jesus "Chucho" Valdes, arranged and conducted by Edito Martinez) - 6:09
10. Tres Tristes Tigres (composed by Paquito D'Rivera, 1993) - 4:46
11. Lorenzo's Wings (composed by Paquito D'Rivera) - 3:33
 
Лог создания рипа
Exact Audio Copy V0.99 prebeta 5 from 4. May 2009
EAC extraction logfile from 29. September 2010, 10:53
Paquito D'Rivera / 40 Years Cuban Jam Session
Used drive : TSSTcorpCDDVDW SH-S202H Adapter: 2 ID: 0
Read mode : Secure
Utilize accurate stream : Yes
Defeat audio cache : Yes
Make use of C2 pointers : No
Read offset correction : 6
Overread into Lead-In and Lead-Out : No
Fill up missing offset samples with silence : Yes
Delete leading and trailing silent blocks : No
Null samples used in CRC calculations : Yes
Used interface : Installed external ASPI interface
Used output format : User Defined Encoder
Selected bitrate : 128 kBit/s
Quality : High
Add ID3 tag : No
Command line compressor : C:\Program Files\Exact Audio Copy\Flac\flac.exe
Additional command line options : -8 -V %s
TOC of the extracted CD
Track | Start | Length | Start sector | End sector
---------------------------------------------------------
1 | 0:00.00 | 5:21.73 | 0 | 24147
2 | 5:21.73 | 6:45.52 | 24148 | 54574
3 | 12:07.50 | 4:27.03 | 54575 | 74602
4 | 16:34.53 | 5:21.12 | 74603 | 98689
5 | 21:55.65 | 3:10.16 | 98690 | 112955
6 | 25:06.06 | 6:12.20 | 112956 | 140875
7 | 31:18.26 | 3:47.50 | 140876 | 157950
8 | 35:06.01 | 3:10.61 | 157951 | 172261
9 | 38:16.62 | 6:09.22 | 172262 | 199958
10 | 44:26.09 | 4:46.35 | 199959 | 221443
11 | 49:12.44 | 3:31.54 | 221444 | 237322
Range status and errors
Selected range
Filename C:\Program Files\Exact Audio Copy\Flac\Paquito D'Rivera - 40 Years Cuban Jam Session.wav
Peak level 99.8 %
Range quality 100.0 %
Test CRC D32529EA
Copy CRC D32529EA
Copy OK
No errors occurred
AccurateRip summary
Track 1 not present in database
Track 2 not present in database
Track 3 not present in database
Track 4 not present in database
Track 5 not present in database
Track 6 not present in database
Track 7 not present in database
Track 8 not present in database
Track 9 not present in database
Track 10 not present in database
Track 11 not present in database
None of the tracks are present in the AccurateRip database
End of status report
 
Содержание индексной карты (.CUE)
REM GENRE Jazz
REM DATE 2004
REM DISCID A90C5C0B
REM COMMENT "ExactAudioCopy v0.99pb5"
PERFORMER "Paquito D'Rivera"
TITLE "40 Years Cuban Jam Session"
FILE "Paquito D'Rivera - 40 Years Cuban Jam Session.flac" WAVE
TRACK 01 AUDIO
TITLE "1. Descargq Para Banda Y Combo"
PERFORMER "Paquito D'Rivera"
INDEX 01 00:00:00
TRACK 02 AUDIO
TITLE "2. Descarga"
PERFORMER "Paquito D'Rivera"
INDEX 01 05:21:73
TRACK 03 AUDIO
TITLE "3. Bolero Medley: Mi Mejor Cancion"
PERFORMER "Paquito D'Rivera"
INDEX 01 12:07:50
TRACK 04 AUDIO
TITLE "4. Bolero Medley: Ayer La Vi Llorar Novia Mia"
PERFORMER "Paquito D'Rivera"
INDEX 01 16:34:53
TRACK 05 AUDIO
TITLE "5. Fifty/Fifty"
PERFORMER "Paquito D'Rivera"
INDEX 01 21:55:65
TRACK 06 AUDIO
TITLE "6. Despojo"
PERFORMER "Paquito D'Rivera"
INDEX 01 25:06:06
TRACK 07 AUDIO
TITLE "7. Cuando Vuelva A Tu Lado"
PERFORMER "Paquito D'Rivera"
INDEX 01 31:18:26
TRACK 08 AUDIO
TITLE "8. Guaguanjira"
PERFORMER "Paquito D'Rivera"
INDEX 01 35:06:01
TRACK 09 AUDIO
TITLE "9. Una Tarde En Alamar"
PERFORMER "Paquito D'Rivera"
INDEX 01 38:16:62
TRACK 10 AUDIO
TITLE "10. Tres Tristes Tigres"
PERFORMER "Paquito D'Rivera"
INDEX 01 44:26:09
TRACK 11 AUDIO
TITLE "11. Lorenzo's Wings"
PERFORMER "Paquito D'Rivera"
INDEX 01 49:12:44
 
Состав
Paquito D'Rivera (1, 3, 4, 6-solo, 8-2nd solo, 9, 11) - clarinet (1, 3, 4, 9, 11), alto-saxophone (1, 3, 6, 8) , flute (9); Jesus Caunedo (6, 8) - alto- (6, 8), tenor- (8), baritone-saxophone (8); Jose "Combo" Silva (7, 8-1st solo) - tenor-saxophine; Tata Palau (1, 6) - piccolo flute (1), tenor-saxophone (6); Israel "Cachao" Lopez (2, 7, 10, 11) - double bass; Waldemar Gomes jr (2) - violin; Alfredo Perez (1, 6), Alfredo "Chocolate" Armenteros (2, 6) - trumpet; Juan Pablo Torres (1, 6-solo), Leopoldo "Pucho' Escalante (6) - trombone; Carlos Gomez (3, 4) - vocals, guitar; Rene Toledo (1, 5, 8, 11) - guitar; Juanito Marquez (5) - guitar, cowbell; Nicky Orta (1, 3, 4, 5, 6, 8, 9, 10), Enrique "Kike" Hernandez (10) - electric bass; Mike Orta (1, 2, 3, 4, 5, 6, 7, 8, 9, 11) - piano; Armandito Romeu (3, 4) - vibes; Edito Martinez (9) - synthesizers; Horacio "El Negro" Hernandez (1, 2, 6, 8, 9, 10, 11) - drums (1, 6, 9, 10, 11), clave (2, 8); Rogelio "Yeyito" Rivero (1, 2, 3, 4, 5, 6, 7, 8, 9, 10) - drums (3, 4, 7, 8), timbales (1, 2, 5, 8, 9), batas (itotele) (6), percussion (10); Victor Valdes (1, 2, 3, 4, 6, 8, 10) percussion, batas (iya) (6); Rigo Herrera (1, 2, 3, 4, 5, 6, 7, 8, 9, 10, 11) - percussion, congas (6, 11), bongos (10), maracas (7); Andy Garcia (7, 10) - congas.
18:22
288
Нет комментариев. Ваш будет первым!