Поиск

(Afro-Cuban Jazz, Latin Jazz) Los Terry - From Africa To Camaguey - 1996, FLAC (image+.cue), lossless

(Afro-Cuban Jazz, Latin Jazz) Los Terry - From Africa To Camaguey - 1996, FLAC (image+.cue), lossless
Треклист:
♦ Los Terry - From Africa To Camaguey ♦
Жанр: Afro-Cuban Jazz, Latin Jazz
Год издания: 1996
Издатель (лейбл): Round World
Номер по каталогу: RWCD 9703
Аудиокодек: FLAC (*.flac)
Тип рипа: image+.cue
Битрейт аудио: lossless
Продолжительность: 00:53:29
Источник (релизер): dreadbull
Наличие сканов в содержимом раздачи: да
Треклист:
01. Tinguiti 'ta Durmiendo [06:21]
02. Que Tiene Esa Cintura [05:16]
03. Los Orishas [06:52]
04. El Noticiero [08:00]
05. Y Manana Que [04:58]
06. Voy Buscando Mi Destino [05:18]
07. Son Wambari [08:13]
08. Nos Vamos a Perder [03:17]
09. Actitud Ante el Trabajo [05:09]
 
Лог создания рипа
Exact Audio Copy V1.0 beta 3 from 29. August 2011
EAC extraction logfile from 25. April 2013, 17:07
Los Terry / From Africa to Camaguey
Used drive : ASUS DRW-22B2L Adapter: 0 ID: 0
Read mode : Secure
Utilize accurate stream : Yes
Defeat audio cache : Yes
Make use of C2 pointers : No
Read offset correction : 6
Overread into Lead-In and Lead-Out : No
Fill up missing offset samples with silence : Yes
Delete leading and trailing silent blocks : No
Null samples used in CRC calculations : Yes
Used interface : Native Win32 interface for Win NT & 2000
Used output format : User Defined Encoder
Selected bitrate : 128 kBit/s
Quality : High
Add ID3 tag : Yes
Command line compressor : C:\Program Files\FLAC\flac.exe
Additional command line options : -8 -V -T "ARTIST=%artist%" -T "TITLE=%title%" -T "ALBUM=%albumtitle%" -T "DATE=%year%" -T "TRACKNUMBER=%tracknr%" -T "GENRE=%genre%" -T "PERFORMER=%albuminterpret%" -T "COMPOSER=%composer%" %haslyrics%--tag-from-file=LYRICS="%lyricsfile%"%haslyrics% -T "ALBUMARTIST=%albumartist%" -T "DISCNUMBER=%cdnumber%" -T "TOTALDISCS=%totalcds%" -T "TOTALTRACKS=%numtracks%" -T "COMMENT=%comment%" %source% -o %dest%
TOC of the extracted CD
Track | Start | Length | Start sector | End sector
---------------------------------------------------------
1 | 0:00.00 | 6:21.55 | 0 | 28629
2 | 6:21.55 | 5:16.57 | 28630 | 52386
3 | 11:38.37 | 6:52.48 | 52387 | 83334
4 | 18:31.10 | 8:00.65 | 83335 | 119399
5 | 26:32.00 | 4:58.02 | 119400 | 141751
6 | 31:30.02 | 5:18.60 | 141752 | 165661
7 | 36:48.62 | 8:13.38 | 165662 | 202674
8 | 45:02.25 | 3:17.09 | 202675 | 217458
9 | 48:19.34 | 5:09.73 | 217459 | 240706
Range status and errors
Selected range
Filename F:\Donkey Files\Los Terry - From Africa to Camaguey (1996, Round World) [eac-flac-scans] byDrBull\Los Terry - From Africa to Camaguey.wav
Peak level 100.0 %
Extraction speed 3.0 X
Range quality 99.9 %
Test CRC 59284352
Copy CRC 59284352
Copy OK
No errors occurred
AccurateRip summary
Track 1 not present in database
Track 2 not present in database
Track 3 not present in database
Track 4 not present in database
Track 5 not present in database
Track 6 not present in database
Track 7 not present in database
Track 8 not present in database
Track 9 not present in database
None of the tracks are present in the AccurateRip database
End of status report
==== Log checksum C0CEEA3E608824204DCCAE5843D3EFF97ACC715BAFEA9A9EC31EBCDF484F7584 ====
 
Содержание индексной карты (.CUE)
REM GENRE Latin
REM DATE 1996
REM DISCID 620C8909
REM COMMENT "ExactAudioCopy v1.0b3"
PERFORMER "Los Terry"
TITLE "From Africa to Camaguey"
FILE "Los Terry - From Africa to Camaguey.flac" WAVE
TRACK 01 AUDIO
TITLE "Tinguiti 'ta Durmiendo"
PERFORMER "Los Terry"
INDEX 01 00:00:00
TRACK 02 AUDIO
TITLE "Que Tiene Esa Cintura"
PERFORMER "Los Terry"
INDEX 00 06:19:02
INDEX 01 06:21:55
TRACK 03 AUDIO
TITLE "Los Orishas"
PERFORMER "Los Terry"
INDEX 00 11:35:60
INDEX 01 11:38:37
TRACK 04 AUDIO
TITLE "El Noticiero"
PERFORMER "Los Terry"
INDEX 00 18:28:37
INDEX 01 18:31:10
TRACK 05 AUDIO
TITLE "Y Manana Que"
PERFORMER "Los Terry"
INDEX 00 26:29:25
INDEX 01 26:32:00
TRACK 06 AUDIO
TITLE "Voy Buscando Mi Destino"
PERFORMER "Los Terry"
INDEX 00 31:27:47
INDEX 01 31:30:02
TRACK 07 AUDIO
TITLE "Son Wambari"
PERFORMER "Los Terry"
INDEX 00 36:46:22
INDEX 01 36:48:62
TRACK 08 AUDIO
TITLE "Nos Vamos a Perder"
PERFORMER "Los Terry"
INDEX 00 44:59:40
INDEX 01 45:02:25
TRACK 09 AUDIO
TITLE "Actitud Ante el Trabajo"
PERFORMER "Los Terry"
INDEX 00 48:16:60
INDEX 01 48:19:34
 
Состав
Personnel:Eladio "Pancho" Terry González - chekeré, guiro, lead vocals;
Lydia Cabrera León - background vocals;
Yosvany Terry Cabrera - alto sax, keyboards, arranger;
Yunior Terry Cabrera - bass;
Yoel Eladio Terry Cabrera - flute;
Ivan "Melón" González Lewis - piano;
Dafnis Prieto Rodríguez - congas;
John Santos - timbales, bongós, percussion;
José "Laíto" Hernández Boza - lead & background vocals;
Andrés Román Sánchez - lead & background vocals;
Arlin González, Luisito - background vocals;
Pablo Menendez - guitar (#6);
Octavio Rodríguez Rivero - batá, clave, guataca.
11:53
317
Нет комментариев. Ваш будет первым!