Поиск

(Afro-Cuban Jazz, Latin Jazz) Irakere - 30 Anos - 2004, FLAC (tracks+.cue), lossless

Треклист:
( Afro-Cuban Jazz, Latin Jazz) Irakere - 30 Años (2004) [FLAC (tracks+cue), lossless]
Irakere - 30 Años
Исполнитель: Irakere
Альбом: 30 Años
Страна: Cuba
Дата выпуска: 2004
Жанр: Afro-Cuban Jazz, Latin Jazz
Формат: FLAC (tracks+cue)
Битрейт: lossless
Продолжительность: 00:53:48
Источник: TPB, релизер: pastafari
Треклист:
01. Juana 1600 [00:08:25]
02. Nothing Personal [00:06:28]
03. Zanaith [00:05:28]
04. Drume negrita [00:03:55]
05. 100 años de juventud [00:06:11]
06. Estrella va a estallar [00:11:55]
07. Changó [00:05:53]
08. Bacalao con pan [00:05:29]
Доп. информация: http://www.americasalsa.com/musica/irakere_30.html
 
Отчёт EAC
Exact Audio Copy V0.99 prebeta 4 from 23. January 2008
EAC extraction logfile from 14. January 2010, 20:45
Irakere / 30 Aсos
Used drive : TSSTcorpCDDVDW TS-H653N Adapter: 2 ID: 2
Read mode : Secure
Utilize accurate stream : Yes
Defeat audio cache : Yes
Make use of C2 pointers : No
Read offset correction : 6
Overread into Lead-In and Lead-Out : No
Fill up missing offset samples with silence : Yes
Delete leading and trailing silent blocks : No
Null samples used in CRC calculations : Yes
Used interface : Native Win32 interface for Win NT & 2000
Gap handling : Appended to previous track
Used output format : User Defined Encoder
Selected bitrate : 1024 kBit/s
Quality : High
Add ID3 tag : No
Command line compressor : C:\Program Files\FLAC -\flac.exe
Additional command line options : -5 -V -T "artist=%a" -T "title=%t" -T "album=%g" -T "date=%y" -T "tracknumber=%n" -T "genre=%m" -T comment="shared by pastafari cubensis" %s
TOC of the extracted CD
Track | Start | Length | Start sector | End sector
---------------------------------------------------------
1 | 0:00.00 | 8:25.42 | 0 | 37916
2 | 8:25.42 | 6:28.07 | 37917 | 67023
3 | 14:53.49 | 5:28.33 | 67024 | 91656
4 | 20:22.07 | 3:55.63 | 91657 | 109344
5 | 24:17.70 | 6:11.43 | 109345 | 137212
6 | 30:29.38 | 11:55.59 | 137213 | 190896
7 | 42:25.22 | 5:53.65 | 190897 | 217436
8 | 48:19.12 | 5:29.17 | 217437 | 242128
Track 1
Filename C:\CD_buffer\Irakere - 2004 - 30 Aсos [FLAC]\01- Juana 1600.wav
Pre-gap length 0:00:02.00
Peak level 93.0 %
Track quality 100.0 %
Test CRC DA700051
Copy CRC DA700051
Copy OK
Track 2
Filename C:\CD_buffer\Irakere - 2004 - 30 Aсos [FLAC]\02- Nothing Personal.wav
Peak level 93.7 %
Track quality 100.0 %
Test CRC 50122884
Copy CRC 50122884
Copy OK
Track 3
Filename C:\CD_buffer\Irakere - 2004 - 30 Aсos [FLAC]\03- Zanaith.wav
Peak level 93.4 %
Track quality 100.0 %
Test CRC B8B11A87
Copy CRC B8B11A87
Copy OK
Track 4
Filename C:\CD_buffer\Irakere - 2004 - 30 Aсos [FLAC]\04- Drume negrita.wav
Peak level 93.6 %
Track quality 100.0 %
Test CRC 95E61435
Copy CRC 95E61435
Copy OK
Track 5
Filename C:\CD_buffer\Irakere - 2004 - 30 Aсos [FLAC]\05- 100 aсos de juventud.wav
Peak level 93.7 %
Track quality 99.9 %
Test CRC EF1CB6DC
Copy CRC EF1CB6DC
Copy OK
Track 6
Filename C:\CD_buffer\Irakere - 2004 - 30 Aсos [FLAC]\06- Estrella va a estallar.wav
Peak level 93.7 %
Track quality 100.0 %
Test CRC 64DAA438
Copy CRC 64DAA438
Copy OK
Track 7
Filename C:\CD_buffer\Irakere - 2004 - 30 Aсos [FLAC]\07- Changу.wav
Peak level 92.2 %
Track quality 100.0 %
Test CRC C634E506
Copy CRC C634E506
Copy OK
Track 8
Filename C:\CD_buffer\Irakere - 2004 - 30 Aсos [FLAC]\08- Bacalao con pan.wav
Peak level 93.7 %
Track quality 100.0 %
Test CRC 17267E8E
Copy CRC 17267E8E
Copy OK
No errors occurred
End of status report
 
CUE
REM GENRE AfroCuban
REM DATE 2004
REM DISCID 6B0C9C08
REM COMMENT "ExactAudioCopy v0.99pb4"
PERFORMER "Irakere"
TITLE "30 Aсos"
FILE "Irakere - 2004 - 30 Aсos [FLAC]\01- Juana 1600.wav" WAVE
TRACK 01 AUDIO
TITLE "Juana 1600"
PERFORMER "Irakere"
FLAGS DCP
INDEX 01 00:00:00
FILE "Irakere - 2004 - 30 Aсos [FLAC]\02- Nothing Personal.wav" WAVE
TRACK 02 AUDIO
TITLE "Nothing Personal"
PERFORMER "Irakere"
FLAGS DCP
INDEX 01 00:00:00
FILE "Irakere - 2004 - 30 Aсos [FLAC]\03- Zanaith.wav" WAVE
TRACK 03 AUDIO
TITLE "Zanaith"
PERFORMER "Irakere"
FLAGS DCP
INDEX 01 00:00:00
FILE "Irakere - 2004 - 30 Aсos [FLAC]\04- Drume negrita.wav" WAVE
TRACK 04 AUDIO
TITLE "Drume negrita"
PERFORMER "Irakere"
FLAGS DCP
INDEX 01 00:00:00
FILE "Irakere - 2004 - 30 Aсos [FLAC]\05- 100 aсos de juventud.wav" WAVE
TRACK 05 AUDIO
TITLE "100 aсos de juventud"
PERFORMER "Irakere"
FLAGS DCP
INDEX 01 00:00:00
FILE "Irakere - 2004 - 30 Aсos [FLAC]\06- Estrella va a estallar.wav" WAVE
TRACK 06 AUDIO
TITLE "Estrella va a estallar"
PERFORMER "Irakere"
FLAGS DCP
INDEX 01 00:00:00
FILE "Irakere - 2004 - 30 Aсos [FLAC]\07- Changу.wav" WAVE
TRACK 07 AUDIO
TITLE "Changу"
PERFORMER "Irakere"
FLAGS DCP
INDEX 01 00:00:00
FILE "Irakere - 2004 - 30 Aсos [FLAC]\08- Bacalao con pan.wav" WAVE
TRACK 08 AUDIO
TITLE "Bacalao con pan"
PERFORMER "Irakere"
FLAGS DCP
INDEX 01 00:00:00
Jai Guru Deva Om
14:14
287
Нет комментариев. Ваш будет первым!