Поиск

(Afro-Cuban Jazz, Latin Jazz) Gonzalo Rubalcaba - Giraldilla - 1990, FLAC (tracks+.cue), lossless

(Afro-Cuban Jazz, Latin Jazz) Gonzalo Rubalcaba - Giraldilla - 1990, FLAC (tracks+.cue), lossless
Треклист:
Gonzalo Rubalcaba - Giraldilla
Жанр: Afro-Cuban Jazz, Latin Jazz
Год издания: 1990
Издатель (лейбл): Messidor
Номер по каталогу: 15801-2
Страна: Куба
Аудиокодек: FLAC (*.flac)
Тип рипа: tracks+.cue
Битрейт аудио: lossless
Продолжительность: 77:43
Источник (релизер): gesualdo (what)
Наличие сканов в содержимом раздачи: нет
Треклист:
01. Rumbero (11:20)
02. Proyecto Latino Part I, II, III, IV (12:02)
03. Encuentro (8:08)
04. Giraldilla (11:10)
05. Presidente (8:39)
06. Campo Finda (10:38)
07. Comienzo (15:46)
Состав:
Gonzala Rubalcaba - synthesizers, programming
Reynaldo Melian Alvarez - trumpet
Mario Garcia - synthesizer, guitar
Felipe Cabrera - bass
Horacio Hernandez - drums
Roberto Vizcaino - percussion
Recorded at Studio Musicland, Munchen in 1989.
 
Лог создания рипа
X Lossless Decoder version 20120226 (139.1)
XLD extraction logfile from 2012-03-29 11:07:50 +0200
Gonzalo Rubacalba / Giraldilla
Used drive : MATSHITA DVD-R UJ-857 (revision HAEA)
Ripper mode : XLD Secure Ripper
Disable audio cache : OK for the drive with a cache less than 1375KiB
Make use of C2 pointers : NO
Read offset correction : 102
Max retry count : 20
Gap status : Analyzed, Appended (except HTOA)
TOC of the extracted CD
Track | Start | Length | Start sector | End sector
---------------------------------------------------------
1 | 00:00:33 | 11:20:00 | 33 | 51032
2 | 11:20:33 | 12:02:00 | 51033 | 105182
3 | 23:22:33 | 08:08:00 | 105183 | 141782
4 | 31:30:33 | 11:10:00 | 141783 | 192032
5 | 42:40:33 | 08:39:00 | 192033 | 230957
6 | 51:19:33 | 10:38:00 | 230958 | 278807
7 | 61:57:33 | 15:46:25 | 278808 | 349782
AccurateRip Summary
Track 01 : OK (confidence 1)
Track 02 : OK (confidence 1)
Track 03 : OK (confidence 1)
Track 04 : OK (confidence 1)
Track 05 : OK (confidence 1)
Track 06 : OK (confidence 1)
Track 07 : OK (confidence 1)
->All tracks accurately ripped.
All Tracks
Album gain : -2.18 dB
Peak : 1.000000
Statistics
Read error : 0
Jitter error (maybe fixed) : 0
Retry sector count : 0
Damaged sector count : 0
Track 01
Filename : /Users/admin/Music/Gonzalo Rubacalba - Giraldilla (1990) [FLAC]/01 Rumbero.flac
Pre-gap length : 00:02:33
Track gain : -2.11 dB
Peak : 1.000000
CRC32 hash (test run) : D08C5FE2
CRC32 hash : D08C5FE2
CRC32 hash (skip zero) : D20CC1D3
AccurateRip signature : BA5E1D1D
->Accurately ripped! (confidence 1)
Statistics
Read error : 0
Jitter error (maybe fixed) : 0
Retry sector count : 0
Damaged sector count : 0
Track 02
Filename : /Users/admin/Music/Gonzalo Rubacalba - Giraldilla (1990) [FLAC]/02 Proyecto Latino (Part I, II, III, IV).flac
Pre-gap length : 00:04:50
Track gain : -2.29 dB
Peak : 0.957672
CRC32 hash (test run) : FE9C2CED
CRC32 hash : FE9C2CED
CRC32 hash (skip zero) : 0B3C160F
AccurateRip signature : 22344AE9
->Accurately ripped! (confidence 1)
Statistics
Read error : 0
Jitter error (maybe fixed) : 0
Retry sector count : 0
Damaged sector count : 0
Track 03
Filename : /Users/admin/Music/Gonzalo Rubacalba - Giraldilla (1990) [FLAC]/03 Encuentro.flac
Pre-gap length : 00:01:50
Track gain : -1.27 dB
Peak : 0.860535
CRC32 hash (test run) : D5A7F398
CRC32 hash : D5A7F398
CRC32 hash (skip zero) : 511EBB66
AccurateRip signature : 5AD06F5A
->Accurately ripped! (confidence 1)
Statistics
Read error : 0
Jitter error (maybe fixed) : 0
Retry sector count : 0
Damaged sector count : 0
Track 04
Filename : /Users/admin/Music/Gonzalo Rubacalba - Giraldilla (1990) [FLAC]/04 Giraldilla.flac
Pre-gap length : 00:04:50
Track gain : -2.61 dB
Peak : 0.999969
CRC32 hash (test run) : E40DB9C2
CRC32 hash : E40DB9C2
CRC32 hash (skip zero) : EEE8E1ED
AccurateRip signature : 685F2721
->Accurately ripped! (confidence 1)
Statistics
Read error : 0
Jitter error (maybe fixed) : 0
Retry sector count : 0
Damaged sector count : 0
Track 05
Filename : /Users/admin/Music/Gonzalo Rubacalba - Giraldilla (1990) [FLAC]/05 Presidente.flac
Pre-gap length : 00:03:50
Track gain : -2.23 dB
Peak : 0.965454
CRC32 hash (test run) : 3133C75A
CRC32 hash : 3133C75A
CRC32 hash (skip zero) : 91F16181
AccurateRip signature : 1EB5A016
->Accurately ripped! (confidence 1)
Statistics
Read error : 0
Jitter error (maybe fixed) : 0
Retry sector count : 0
Damaged sector count : 0
Track 06
Filename : /Users/admin/Music/Gonzalo Rubacalba - Giraldilla (1990) [FLAC]/06 Campo Finda.flac
Pre-gap length : 00:03:50
Track gain : 0.93 dB
Peak : 0.902954
CRC32 hash (test run) : 4DFDA437
CRC32 hash : 4DFDA437
CRC32 hash (skip zero) : BB1661F4
AccurateRip signature : 3468914A
->Accurately ripped! (confidence 1)
Statistics
Read error : 0
Jitter error (maybe fixed) : 0
Retry sector count : 0
Damaged sector count : 0
Track 07
Filename : /Users/admin/Music/Gonzalo Rubacalba - Giraldilla (1990) [FLAC]/07 Comienzo.flac
Pre-gap length : 00:00:62
Track gain : -2.97 dB
Peak : 0.998474
CRC32 hash (test run) : CD6818CC
CRC32 hash : CD6818CC
CRC32 hash (skip zero) : 32124BB8
AccurateRip signature : 374F6AD2
->Accurately ripped! (confidence 1)
Statistics
Read error : 0
Jitter error (maybe fixed) : 0
Retry sector count : 0
Damaged sector count : 0
No errors occurred
End of status report
 
Содержание индексной карты (.CUE)
TITLE "Giraldilla"
PERFORMER "Gonzalo Rubacalba"
REM DATE "1990"
REM DISCID 5E123707
REM REPLAYGAIN_ALBUM_GAIN -2.18 dB
REM REPLAYGAIN_ALBUM_PEAK 1.000000
FILE "01 - Rumbero.wav" WAVE
TRACK 01 AUDIO
TITLE "Rumbero"
REM REPLAYGAIN_TRACK_GAIN -2.11 dB
REM REPLAYGAIN_TRACK_PEAK 1.000000
PREGAP 00:00:33
INDEX 01 00:00:00
TRACK 02 AUDIO
TITLE "Proyecto Latino (Part I, II, III, IV)"
REM REPLAYGAIN_TRACK_GAIN -2.29 dB
REM REPLAYGAIN_TRACK_PEAK 0.957672
INDEX 00 11:15:25
FILE "02 - Proyecto Latino (Part I, II, III, IV).wav" WAVE
INDEX 01 00:00:00
TRACK 03 AUDIO
TITLE "Encuentro"
REM REPLAYGAIN_TRACK_GAIN -1.27 dB
REM REPLAYGAIN_TRACK_PEAK 0.860535
INDEX 00 12:00:25
FILE "03 - Encuentro.wav" WAVE
INDEX 01 00:00:00
TRACK 04 AUDIO
TITLE "Giraldilla"
REM REPLAYGAIN_TRACK_GAIN -2.61 dB
REM REPLAYGAIN_TRACK_PEAK 0.999969
INDEX 00 08:03:25
FILE "04 - Giraldilla.wav" WAVE
INDEX 01 00:00:00
TRACK 05 AUDIO
TITLE "Presidente"
REM REPLAYGAIN_TRACK_GAIN -2.23 dB
REM REPLAYGAIN_TRACK_PEAK 0.965454
INDEX 00 11:06:25
FILE "05 - Presidente.wav" WAVE
INDEX 01 00:00:00
TRACK 06 AUDIO
TITLE "Campo Finda"
REM REPLAYGAIN_TRACK_GAIN 0.93 dB
REM REPLAYGAIN_TRACK_PEAK 0.902954
INDEX 00 08:35:25
FILE "06 - Campo Finda.wav" WAVE
INDEX 01 00:00:00
TRACK 07 AUDIO
TITLE "Comienzo"
REM REPLAYGAIN_TRACK_GAIN -2.97 dB
REM REPLAYGAIN_TRACK_PEAK 0.998474
INDEX 00 10:37:13
FILE "07 - Comienzo.wav" WAVE
INDEX 01 00:00:00
 
Отчет CUETools
[CUETools log; Date: 26.12.2012 13:15:37; Version: 2.1.4]
Pregap length 00:00:33.
[CTDB TOCID: l5YHpYGn28CiyinTWq7aJ43.YQA-] disk not present in database.
[AccurateRip ID: 001497ee-007b4ce5-5e123707] found.
Track [ CRC | V2 ] Status
01 [ba5e1d1d|1f576964] (1+0/1) Accurately ripped
02 [22344ae9|62bda157] (1+0/1) Accurately ripped
03 [5ad06f5a|cf7dd38a] (1+0/1) Accurately ripped
04 [685f2721|2474057f] (1+0/1) Accurately ripped
05 [1eb5a016|1d64ae29] (1+0/1) Accurately ripped
06 [3468914a|5c935d9c] (1+0/1) Accurately ripped
07 [374f6ad2|ffe12275] (1+0/1) Accurately ripped
Track Peak [ CRC32 ] [W/O NULL]
-- 100,0 [9BC18617] [6B437703]
01 100,0 [D08C5FE2] [D20CC1D3]
02 95,7 [FE9C2CED] [0B3C160F]
03 86,0 [D5A7F398] [511EBB66]
04 100,0 [E40DB9C2] [EEE8E1ED]
05 96,5 [3133C75A] [91F16181]
06 90,2 [4DFDA437] [BB1661F4]
07 99,8 [CD6818CC] [32124BB8]
 
Review by Ned Sublette
Rubalcaba's follow-up to Mi Gran Pasion couldn't have been more unlike its predecessor. Musicians from a country where the phones don't work are set down in a high-tech German studio. It's strident, sprawling, and brilliant. World music? This is it. Dissonant counterpoint worthy of an Austrian, percussion that only a Cuban could play -- and the excitement of a young world-class pianist still learning to control his power.
09:39
278
Нет комментариев. Ваш будет первым!