Поиск

(Afro-Cuban Jazz, Latin Jazz, Contemporary Jazz) [CD] Horacio "El Negro" Hernandez - Italuba II - 2006, FLAC (tracks+.cue), lossless

(Afro-Cuban Jazz, Latin Jazz, Contemporary Jazz) [CD] Horacio "El Negro" Hernandez - Italuba II - 2006, FLAC (tracks+.cue), lossless
Horacio "El Negro" Hernandez / Italuba II
Жанр: Afro-Cuban Jazz, Latin Jazz, Contemporary Jazz
Носитель: CD
Год издания: 2006
Издатель (лейбл): Cacao Music
Аудиокодек: FLAC (*.flac)
Тип рипа: tracks+.cue
Битрейт аудио: lossless
Продолжительность: 00:55:40
Источник (релизер): jazzcrime
Наличие сканов в содержимом раздачи: нет
Треклист:
01.Last Minute
02.Te Prima
03.Afternoon At The Boulevard
04.Mr.
05.Divertimento
06.Pati Metal
07.Notice
08.Meridien (Dedicated to Paquito d'Rivera)
09.Sentimiento en Re-Sol
10.Deseo
11.Distancia
 
Лог создания рипа
X Lossless Decoder version 20091108 (112.0)
XLD extraction logfile from 2010-06-02 19:25:01 +0100
Horacio El Negro Hernandez / Italuba II
Used drive : Optiarc DVD RW AD-5240S (revision 1.03)
Use cdparanoia mode : YES (CDParanoia III 10.2 engine)
Disable audio cache : OK for the drive with cache less than 2750KB
Make use of C2 pointers : NO
Read offset correction : 48
Max retry count : 100
TOC of the extracted CD
Track | Start | Length | Start sector | End sector
---------------------------------------------------------
1 | 00:00:00 | 03:45:15 | 0 | 16889
2 | 03:45:15 | 04:34:37 | 16890 | 37476
3 | 08:19:52 | 07:42:18 | 37477 | 72144
4 | 16:01:70 | 05:45:07 | 72145 | 98026
5 | 21:47:02 | 03:31:03 | 98027 | 113854
6 | 25:18:05 | 05:33:35 | 113855 | 138864
7 | 30:51:40 | 04:56:63 | 138865 | 161127
8 | 35:48:28 | 04:24:34 | 161128 | 180961
9 | 40:12:62 | 04:34:40 | 180962 | 201551
10 | 44:47:27 | 06:32:24 | 201552 | 230975
11 | 51:19:51 | 04:20:05 | 230976 | 250480
Track 01
Filename : /Volumes/HFS1/XLD Rips/Horatio Hernandez - 2006 - Italuba II (FLAC)/01 - Last Minute.flac
CRC32 hash (test run) : E1FCC5C1
CRC32 hash : E1FCC5C1
CRC32 hash (skip zero) : DDA40745
AccurateRip signature : CC4687E7
->Track not present in AccurateRip database.
Statistics
Read error : 0
Skipped (treated as error) : 0
Edge jitter error (maybe fixed) : 0
Atom jitter error (maybe fixed) : 0
Drift error (maybe fixed) : 0
Dropped bytes error (maybe fixed) : 0
Duplicated bytes error (maybe fixed) : 0
Inconsistency in error sectors : 0
Track 02
Filename : /Volumes/HFS1/XLD Rips/Horatio Hernandez - 2006 - Italuba II (FLAC)/02 - Te Prima.flac
CRC32 hash (test run) : 70B524AD
CRC32 hash : 70B524AD
CRC32 hash (skip zero) : B1FC9F64
AccurateRip signature : BC7B343B
->Track not present in AccurateRip database.
Statistics
Read error : 0
Skipped (treated as error) : 0
Edge jitter error (maybe fixed) : 0
Atom jitter error (maybe fixed) : 0
Drift error (maybe fixed) : 0
Dropped bytes error (maybe fixed) : 0
Duplicated bytes error (maybe fixed) : 0
Inconsistency in error sectors : 0
Track 03
Filename : /Volumes/HFS1/XLD Rips/Horatio Hernandez - 2006 - Italuba II (FLAC)/03 - Afternoon at the Baulevard.flac
CRC32 hash (test run) : 6A8A73A2
CRC32 hash : 6A8A73A2
CRC32 hash (skip zero) : 9350DA88
AccurateRip signature : 0F17D529
->Track not present in AccurateRip database.
Statistics
Read error : 0
Skipped (treated as error) : 0
Edge jitter error (maybe fixed) : 0
Atom jitter error (maybe fixed) : 0
Drift error (maybe fixed) : 0
Dropped bytes error (maybe fixed) : 0
Duplicated bytes error (maybe fixed) : 0
Inconsistency in error sectors : 0
Track 04
Filename : /Volumes/HFS1/XLD Rips/Horatio Hernandez - 2006 - Italuba II (FLAC)/04 - Mr..flac
CRC32 hash (test run) : F287CC8E
CRC32 hash : F287CC8E
CRC32 hash (skip zero) : 5F939624
AccurateRip signature : A19AC036
->Track not present in AccurateRip database.
Statistics
Read error : 0
Skipped (treated as error) : 0
Edge jitter error (maybe fixed) : 0
Atom jitter error (maybe fixed) : 0
Drift error (maybe fixed) : 0
Dropped bytes error (maybe fixed) : 0
Duplicated bytes error (maybe fixed) : 0
Inconsistency in error sectors : 0
Track 05
Filename : /Volumes/HFS1/XLD Rips/Horatio Hernandez - 2006 - Italuba II (FLAC)/05 - Divertimo.flac
CRC32 hash (test run) : 6F830504
CRC32 hash : 6F830504
CRC32 hash (skip zero) : 71923DB1
AccurateRip signature : CD65B4F5
->Track not present in AccurateRip database.
Statistics
Read error : 0
Skipped (treated as error) : 0
Edge jitter error (maybe fixed) : 0
Atom jitter error (maybe fixed) : 0
Drift error (maybe fixed) : 0
Dropped bytes error (maybe fixed) : 0
Duplicated bytes error (maybe fixed) : 0
Inconsistency in error sectors : 0
Track 06
Filename : /Volumes/HFS1/XLD Rips/Horatio Hernandez - 2006 - Italuba II (FLAC)/06 - Pati Metal.flac
CRC32 hash (test run) : E60C6D30
CRC32 hash : E60C6D30
CRC32 hash (skip zero) : CA3AE077
AccurateRip signature : 20F6F28D
->Track not present in AccurateRip database.
Statistics
Read error : 0
Skipped (treated as error) : 0
Edge jitter error (maybe fixed) : 0
Atom jitter error (maybe fixed) : 0
Drift error (maybe fixed) : 0
Dropped bytes error (maybe fixed) : 0
Duplicated bytes error (maybe fixed) : 0
Inconsistency in error sectors : 0
Track 07
Filename : /Volumes/HFS1/XLD Rips/Horatio Hernandez - 2006 - Italuba II (FLAC)/07 - A Notice.flac
CRC32 hash (test run) : 59030750
CRC32 hash : 59030750
CRC32 hash (skip zero) : A0AEEA56
AccurateRip signature : C54272F9
->Track not present in AccurateRip database.
Statistics
Read error : 0
Skipped (treated as error) : 0
Edge jitter error (maybe fixed) : 0
Atom jitter error (maybe fixed) : 0
Drift error (maybe fixed) : 0
Dropped bytes error (maybe fixed) : 0
Duplicated bytes error (maybe fixed) : 0
Inconsistency in error sectors : 0
Track 08
Filename : /Volumes/HFS1/XLD Rips/Horatio Hernandez - 2006 - Italuba II (FLAC)/08 - Meridien.flac
CRC32 hash (test run) : 3250A3B4
CRC32 hash : 3250A3B4
CRC32 hash (skip zero) : 446DC296
AccurateRip signature : ECFC9A2A
->Track not present in AccurateRip database.
Statistics
Read error : 0
Skipped (treated as error) : 0
Edge jitter error (maybe fixed) : 0
Atom jitter error (maybe fixed) : 0
Drift error (maybe fixed) : 0
Dropped bytes error (maybe fixed) : 0
Duplicated bytes error (maybe fixed) : 0
Inconsistency in error sectors : 0
Track 09
Filename : /Volumes/HFS1/XLD Rips/Horatio Hernandez - 2006 - Italuba II (FLAC)/09 - Sentimiento en re sol.flac
CRC32 hash (test run) : 48065D8A
CRC32 hash : 48065D8A
CRC32 hash (skip zero) : 1C8136E0
AccurateRip signature : F391DCA2
->Track not present in AccurateRip database.
Statistics
Read error : 0
Skipped (treated as error) : 0
Edge jitter error (maybe fixed) : 0
Atom jitter error (maybe fixed) : 0
Drift error (maybe fixed) : 0
Dropped bytes error (maybe fixed) : 0
Duplicated bytes error (maybe fixed) : 0
Inconsistency in error sectors : 0
Track 10
Filename : /Volumes/HFS1/XLD Rips/Horatio Hernandez - 2006 - Italuba II (FLAC)/10 - Deseo.flac
CRC32 hash (test run) : B688BF5A
CRC32 hash : B688BF5A
CRC32 hash (skip zero) : 11A43DAF
AccurateRip signature : 43C6CDD2
->Track not present in AccurateRip database.
Statistics
Read error : 0
Skipped (treated as error) : 0
Edge jitter error (maybe fixed) : 0
Atom jitter error (maybe fixed) : 0
Drift error (maybe fixed) : 0
Dropped bytes error (maybe fixed) : 0
Duplicated bytes error (maybe fixed) : 0
Inconsistency in error sectors : 0
Track 11
Filename : /Volumes/HFS1/XLD Rips/Horatio Hernandez - 2006 - Italuba II (FLAC)/11 - Distancia.flac
CRC32 hash (test run) : F848BA59
CRC32 hash : F848BA59
CRC32 hash (skip zero) : 406776AB
AccurateRip signature : B4F1AAF4
->Track not present in AccurateRip database.
Statistics
Read error : 0
Skipped (treated as error) : 0
Edge jitter error (maybe fixed) : 0
Atom jitter error (maybe fixed) : 0
Drift error (maybe fixed) : 0
Dropped bytes error (maybe fixed) : 0
Duplicated bytes error (maybe fixed) : 0
Inconsistency in error sectors : 0
No errors occurred
End of status report
 
Содержание индексной карты (.CUE)
TITLE "Italuba II"
PERFORMER "Horacio El Negro Hernandez"
REM DATE 2006
FILE "01 - Last Minute.wav" WAVE
TRACK 01 AUDIO
TITLE "Last Minute"
INDEX 01 00:00:00
FILE "02 - Te Prima.wav" WAVE
TRACK 02 AUDIO
TITLE "Te Prima"
INDEX 01 00:00:00
FILE "03 - Afternoon at the Baulevard.wav" WAVE
TRACK 03 AUDIO
TITLE "Afternoon at the Baulevard"
INDEX 01 00:00:00
FILE "04 - Mr..wav" WAVE
TRACK 04 AUDIO
TITLE "Mr."
INDEX 01 00:00:00
FILE "05 - Divertimo.wav" WAVE
TRACK 05 AUDIO
TITLE "Divertimo"
INDEX 01 00:00:00
FILE "06 - Pati Metal.wav" WAVE
TRACK 06 AUDIO
TITLE "Pati Metal"
INDEX 01 00:00:00
FILE "07 - A Notice.wav" WAVE
TRACK 07 AUDIO
TITLE "A Notice"
INDEX 01 00:00:00
FILE "08 - Meridien.wav" WAVE
TRACK 08 AUDIO
TITLE "Meridien"
INDEX 01 00:00:00
FILE "09 - Sentimiento en re sol.wav" WAVE
TRACK 09 AUDIO
TITLE "Sentimiento en re sol"
INDEX 01 00:00:00
FILE "10 - Deseo.wav" WAVE
TRACK 10 AUDIO
TITLE "Deseo"
INDEX 01 00:00:00
FILE "11 - Distancia.wav" WAVE
TRACK 11 AUDIO
TITLE "Distancia"
INDEX 01 00:00:00
 
Об альбоме (сборнике)
Horacio Hernandez, affectionally known as “El Negro” is one in-demand drummer! He has graced the efforts of Carlos Santana, and Afro Cuban sessions of Gonzalo Rubalcaba, and Michel Camilo. He may be Cuba’s most famous exported present-day drummer. He had defected from Cuba to Italy, and now makes his home in the melting pot of New York City.
His debut as a leader, Italuba, was nominated for a Grammy. Now he is back with Italuba II, a mélange of rock, jazz, and Afro Cuban rhythms. It’s a winning mix as evidenced on the trumpet driven anthemic Te Prima; the lyrical straight ahead jazz of Afternoon at the Boulevard; and the fusion Metheny-like, Mr. Also highly enjoyable is the Caribbean feel of Meridien, dedicated to Paquito D’Rivera.
What jumps out to listeners of Italuba is the craft of musicianship of its members. Long is a first rate trumpeter with power to spare. Napoles’ keyboard work easily crosses genres and bassist Izquierdo plays a mean electric bass. “El Negro” drives this band with finesse, showing his brilliant percussive drumming skills, yet never overwhelming his band mates. Their blend of lyricism with Afro Cuban jazz swing keeps a happy vibe going throughout each song.
Sound quality is superb and Cacao Musica’s gatefold design is striking and features beautiful photography and extensive liner notes. Heartily recommended!
-- Audiophile Audition
 
Состав
Horacio "El Negro" Hernandez (drums)
Amik Guerra (trumpet//flugelhorn)
Ivan Bridon Napoles (piano/keyboards)
Daniel Martinez Izquierdo (electric bass)
18:22
271
Нет комментариев. Ваш будет первым!