Поиск

(Afro-Cuban Jazz, Jazz-Funk, World Fusion) Oaktown Irawo - Funky Cubonics - 1998, FLAC (image+.cue), lossless

(Afro-Cuban Jazz, Jazz-Funk, World Fusion) Oaktown Irawo - Funky Cubonics - 1998, FLAC (image+.cue), lossless
Треклист:
Oaktown Irawo - Funky Cubonics
Жанр: Afro-Cuban Jazz, Jazz-Funk, World Fusion
Страна-производитель диска: США
Год издания: 1998
Издатель (лейбл): Tonga
Номер по каталогу: TNGCD-8303
Аудиокодек: FLAC (*.flac)
Тип рипа: image+.cue
Битрейт аудио: lossless
Продолжительность: 45:10
Источник (релизер): dreadbull (hqshare)
Наличие сканов в содержимом раздачи: да
Треклист:
01. I Will Always Remember You (Diaz) - 4:31
02. El Momento (Diaz) - 5:13
03. Nosotros (Diaz-Sosa) - 7:49
04. Kimiko (Sosa) - 6:00
05. Spirit of Carnaval (Landau-Diaz) - 5:01
06. Tren Hacia (Sosa) - 4:51
07. De Noche (Diaz) - 5:47
08. Funky Cubonics (Sosa-Diaz-Landau-Terry-Garibaldi-Fredericks) - 5:36
Состав:
Oaktown Irawo:
Omar Sosa - keyboards
Jesus Diaz - percussion, lead vocals, background vocals
Greg Landau - guitar, tres
Rahsaan Fredericks - bass, background vocals
with
David Garibaldi - drums
Yosvany Terry - tenor saxophone
Paul Hanson - bassoon
Marty Wehner - trombone
Bill Ortiz - trumpet
John Calloway - flute
Recorded at the Outpost Studios, San Francisco.
 
Лог создания рипа
Exact Audio Copy V1.0 beta 3 from 29. August 2011
EAC extraction logfile from 10. April 2012, 13:23
Funky Cubonics / Oaktown Irawo
Used drive : ASUS DRW-22B2L Adapter: 0 ID: 1
Read mode : Secure
Utilize accurate stream : Yes
Defeat audio cache : Yes
Make use of C2 pointers : No
Read offset correction : 6
Overread into Lead-In and Lead-Out : No
Fill up missing offset samples with silence : Yes
Delete leading and trailing silent blocks : No
Null samples used in CRC calculations : Yes
Used interface : Native Win32 interface for Win NT & 2000
Used output format : User Defined Encoder
Selected bitrate : 128 kBit/s
Quality : High
Add ID3 tag : Yes
Command line compressor : C:\Program Files\FLAC\flac.exe
Additional command line options : -8 -V -T "ARTIST=%artist%" -T "TITLE=%title%" -T "ALBUM=%albumtitle%" -T "DATE=%year%" -T "TRACKNUMBER=%tracknr%" -T "GENRE=%genre%" -T "PERFORMER=%albuminterpret%" -T "COMPOSER=%composer%" %haslyrics%--tag-from-file=LYRICS="%lyricsfile%"%haslyrics% -T "ALBUMARTIST=%albumartist%" -T "DISCNUMBER=%cdnumber%" -T "TOTALDISCS=%totalcds%" -T "TOTALTRACKS=%numtracks%" -T "COMMENT=%comment%" %source% -o %dest%
TOC of the extracted CD
Track | Start | Length | Start sector | End sector
---------------------------------------------------------
1 | 0:00.00 | 4:33.12 | 0 | 20486
2 | 4:33.12 | 5:16.28 | 20487 | 44214
3 | 9:49.40 | 7:51.30 | 44215 | 79569
4 | 17:40.70 | 6:00.57 | 79570 | 106626
5 | 23:41.52 | 5:09.45 | 106627 | 129846
6 | 28:51.22 | 4:53.50 | 129847 | 151871
7 | 33:44.72 | 5:49.48 | 151872 | 178094
8 | 39:34.45 | 5:35.70 | 178095 | 203289
Range status and errors
Selected range
Filename D:\Donkey Files\Oaktown Irawo - Funky Cubonics (1998, Tonga) [eac-flac-scans] byDrBull\Funky Cubonics.wav
Peak level 100.0 %
Extraction speed 2.9 X
Range quality 100.0 %
Test CRC 537FCE33
Copy CRC 537FCE33
Copy OK
No errors occurred
AccurateRip summary
Track 1 not present in database
Track 2 not present in database
Track 3 not present in database
Track 4 not present in database
Track 5 not present in database
Track 6 not present in database
Track 7 not present in database
Track 8 not present in database
None of the tracks are present in the AccurateRip database
End of status report
==== Log checksum 9B10C4D6BDFBE278BF30B671A7388D5ADD8E05063EF17523E67FB2D03A083D2E ====
 
Содержание индексной карты (.CUE)
REM DISCID 5C0A9608
REM COMMENT "ExactAudioCopy v1.0b3"
PERFORMER "Funky Cubonics"
TITLE "Oaktown Irawo"
FILE "Funky Cubonics.flac" WAVE
TRACK 01 AUDIO
TITLE "I Will Always Remember You"
PERFORMER "Funky Cubonics"
INDEX 01 00:00:00
TRACK 02 AUDIO
TITLE "El Momento"
PERFORMER "Funky Cubonics"
INDEX 00 04:30:72
INDEX 01 04:33:12
TRACK 03 AUDIO
TITLE "Nosotros"
PERFORMER "Funky Cubonics"
INDEX 00 09:47:25
INDEX 01 09:49:40
TRACK 04 AUDIO
TITLE "Kimiko"
PERFORMER "Funky Cubonics"
INDEX 00 17:38:54
INDEX 01 17:40:70
TRACK 05 AUDIO
TITLE "Spirit of Carnaval"
PERFORMER "Funky Cubonics"
INDEX 00 23:39:50
INDEX 01 23:41:52
TRACK 06 AUDIO
TITLE "Tren Hacia"
PERFORMER "Funky Cubonics"
INDEX 00 28:46:35
INDEX 01 28:51:22
TRACK 07 AUDIO
TITLE "De Noche"
PERFORMER "Funky Cubonics"
INDEX 00 33:42:57
INDEX 01 33:44:72
TRACK 08 AUDIO
TITLE "Funky Cubonics"
PERFORMER "Funky Cubonics"
INDEX 00 39:32:47
INDEX 01 39:34:45
 
Об альбоме (сборнике)
Adding an urban flavor to Afro-Cuban music is a sure way to destabilize an already fearsomely volatile musical Molotov (see the War back catalog). Funky Cubonics, the debut CD from Bay Area troupe Oaktown Irawo, is a stellar [“irawo” means “star” in Yoruba language – DrB] example of Afro-Latin jazz given a '90s funk-jazz makeover. Yoruba-influenced chants bump up against muscular soloing (check out sax player Yosvany Terry on "I Will Always Remember You" and pianist Omar Sosa on "Kimiko") and locked in grooves, courtesy of Tower of Power drummer Dave Garibaldi and percussionist Jesus Diaz. Drawing from forms like the danzon, and rumba, as well as more modern influences like Steve Coleman and Herbie Hancock, Irawo's modern diasporic fusion is capable of stirring even the most resolute wallflowers.
~Tony Green, jazztimes.com
04:07
302
Нет комментариев. Ваш будет первым!