Поиск

(Afro-Cuban Jazz, Jazz-Funk, Disco) [CD] Raul de Souza - Don't Ask My Neighbors - 2016 (1978), FLAC (tracks+.cue), lossless

(Afro-Cuban Jazz, Jazz-Funk, Disco) [CD] Raul de Souza - Don't Ask My Neighbors - 2016 (1978), FLAC (tracks+.cue), lossless
Треклист:
Raul de Souza / Don't Ask My Neighbors
Жанр: Afro-Cuban Jazz, Jazz-Funk, Disco
Носитель: CD
Страна-производитель диска (релиза): Japan
Год издания: 2016
Издатель (лейбл): Universal Music Japan
Номер по каталогу: UCCU-90217
Страна исполнителя (группы): Brasil
Аудиокодек: FLAC (*.flac)
Тип рипа: tracks+.cue
Битрейт аудио: lossless
Продолжительность: 41:33
Источник (релизер): CD
Наличие сканов в содержимом раздачи: да
Треклист:
01 Don't Ask My Neighbors (04:10)
02 La La Song (03:41)
03 Daisy Mae (04:30)
04 Beauty And The Beat (05:02)
05 Fortune (04:07)
06 Overture (05:21)
07 At The Concert (05:08)
08 I Believe You (04:52)
09 Jump Street (04:38)
 
Лог создания рипа
Exact Audio Copy V1.0 beta 2 from 29. April 2011
Отчёт EAC об извлечении, выполненном 20. декабря 2016, 14:43
Raul De Souza / Don't Ask My Neighbors
Дисковод: PLEXTOR BDDVDRPX-B330SA Adapter: 0 ID: 1
Режим чтения : Достоверность
Использование точного потока : Да
Отключение кэша аудио : Да
Использование указателей C2 : Нет
Коррекция смещения при чтении : 702
Способность читать области Lead-in и Lead-out : Нет
Заполнение пропущенных сэмплов тишиной : Да
Удаление блоков с тишиной в начале и конце : Нет
При вычислениях CRC использовались нулевые сэмплы : Да
Интерфейс : Встроенный Win32-интерфейс для Win NT/2000
Обработка зазоров : Добавлено к предыдущему треку
Выходной формат : Пользовательский кодировщик
Выбранный битрейт : 128 kBit/s
Качество : Высокий
Добавление ID3-тега : Нет
Утилита сжатия : C:\Program Files\Exact Audio Copy\FLAC\FLAC.EXE
Дополнительные параметры : -6 -V -T "ARTIST=%artist%" -T "TITLE=%title%" -T "ALBUM=%albumtitle%" -T "DATE=%year%" -T "TRACKNUMBER=%tracknr%" -T "GENRE=%genre%" -T "COMMENT=%comment%" -T "BAND=%albuminterpret%" -T "COMPOSER=%composer%" %haslyrics%--tag-from-
TOC извлечённого CD
Трек | Старт | Длительность | Начальный сектор | Конечный сектор
---------------------------------------------------------------------
1 | 0:00.00 | 4:10.50 | 0 | 18799
2 | 4:10.50 | 3:41.04 | 18800 | 35378
3 | 7:51.54 | 4:30.67 | 35379 | 55695
4 | 12:22.46 | 5:02.24 | 55696 | 78369
5 | 17:24.70 | 4:07.33 | 78370 | 96927
6 | 21:32.28 | 5:21.55 | 96928 | 121057
7 | 26:54.08 | 5:08.16 | 121058 | 144173
8 | 32:02.24 | 4:52.61 | 144174 | 166134
9 | 36:55.10 | 4:38.32 | 166135 | 187016
Трек 1
Имя файла D:\FLAC\01 Don't Ask My Neighbors.wav
Длина предзазора 0:00:02.00
Пиковый уровень 98.9 %
Скорость извлечения 4.6 X
Качество трека 99.9 %
CRC теста 4AFB7F7F
CRC копии 4AFB7F7F
Точность не определена (достоверность 6) [EDA90C8A], AccurateRip вернул [FCBC4B78] (AR v2)
Копирование... OK
Трек 2
Имя файла D:\FLAC\02 La La Song.wav
Пиковый уровень 98.9 %
Скорость извлечения 5.5 X
Качество трека 100.0 %
CRC теста 5ACB2F43
CRC копии 5ACB2F43
Точность не определена (достоверность 6) [5834271E], AccurateRip вернул [52CF2BA6] (AR v2)
Копирование... OK
Трек 3
Имя файла D:\FLAC\03 Daisy Mae.wav
Пиковый уровень 98.9 %
Скорость извлечения 5.6 X
Качество трека 99.9 %
CRC теста 916C4128
CRC копии 916C4128
Точность не определена (достоверность 6) [FDE95970], AccurateRip вернул [75101A8A] (AR v2)
Копирование... OK
Трек 4
Имя файла D:\FLAC\04 Beauty And The Beat.wav
Пиковый уровень 98.9 %
Скорость извлечения 6.7 X
Качество трека 100.0 %
CRC теста 38960BC4
CRC копии 38960BC4
Точность не определена (достоверность 6) [017A377C], AccurateRip вернул [DC041403] (AR v2)
Копирование... OK
Трек 5
Имя файла D:\FLAC\05 Fortune.wav
Пиковый уровень 98.9 %
Скорость извлечения 6.7 X
Качество трека 100.0 %
CRC теста A9F5C5E8
CRC копии A9F5C5E8
Точность не определена (достоверность 6) [ED4629FE], AccurateRip вернул [7612B26D] (AR v2)
Копирование... OK
Трек 6
Имя файла D:\FLAC\06 Overture.wav
Длина предзазора 0:00:00.30
Пиковый уровень 98.9 %
Скорость извлечения 7.5 X
Качество трека 100.0 %
CRC теста 3D5FA398
CRC копии 3D5FA398
Точность не определена (достоверность 6) [3CC34B74], AccurateRip вернул [C5E94118] (AR v2)
Копирование... OK
Трек 7
Имя файла D:\FLAC\07 At The Concert.wav
Пиковый уровень 98.9 %
Скорость извлечения 7.7 X
Качество трека 100.0 %
CRC теста E7368683
CRC копии E7368683
Точность не определена (достоверность 6) [34446195], AccurateRip вернул [02F2C25C] (AR v2)
Копирование... OK
Трек 8
Имя файла D:\FLAC\08 I Believe You.wav
Длина предзазора 0:00:00.55
Пиковый уровень 98.9 %
Скорость извлечения 7.6 X
Качество трека 99.9 %
CRC теста 4F717470
CRC копии 4F717470
Точность не определена (достоверность 6) [E9E9C377], AccurateRip вернул [F48AC48F] (AR v2)
Копирование... OK
Трек 9
Имя файла D:\FLAC\09 Jump Street.wav
Пиковый уровень 98.9 %
Скорость извлечения 6.0 X
Качество трека 100.0 %
CRC теста 85AED58C
CRC копии 85AED58C
Точность не определена (достоверность 6) [6A826610], AccurateRip вернул [9713A672] (AR v2)
Копирование... OK
Ни один трек не прошёл проверки на точность
В вашей базе может быть иной вариант штамповки диска
Ошибок не произошло
Конец отчёта
---- CUETools DB Plugin V2.1.4
[CTDB TOCID: jlDzMmjQ4g2vX4ujQm5AnpesCl0-] found
Submit result: jlDzMmjQ4g2vX4ujQm5AnpesCl0- has been confirmed
Track | CTDB Status
1 | (5/5) Accurately ripped
2 | (5/5) Accurately ripped
3 | (5/5) Accurately ripped
4 | (5/5) Accurately ripped
5 | (5/5) Accurately ripped
6 | (5/5) Accurately ripped
7 | (5/5) Accurately ripped
8 | (5/5) Accurately ripped
9 | (5/5) Accurately ripped
==== Контрольная сумма отчёта 240326744B56BB71B58BC9710E6227A095A4AE7E13E9F7F3DD15DD3FA8F7129D ====
 
Содержание индексной карты (.CUE)
REM DISCID 6D09BD09
REM COMMENT "ExactAudioCopy v1.0b2"
PERFORMER "Raul De Souza"
TITLE "Don't Ask My Neighbors"
FILE "01 Don't Ask My Neighbors.wav" WAVE
TRACK 01 AUDIO
TITLE "Don't Ask My Neighbors"
PERFORMER "Raul De Souza"
ISRC USCA21100612
INDEX 01 00:00:00
FILE "02 La La Song.wav" WAVE
TRACK 02 AUDIO
TITLE "La La Song"
PERFORMER "Raul De Souza"
ISRC USCA21100618
INDEX 01 00:00:00
FILE "03 Daisy Mae.wav" WAVE
TRACK 03 AUDIO
TITLE "Daisy Mae"
PERFORMER "Raul De Souza"
ISRC USCA29801701
INDEX 01 00:00:00
FILE "04 Beauty And The Beat.wav" WAVE
TRACK 04 AUDIO
TITLE "Beauty And The Beat"
PERFORMER "Raul De Souza"
ISRC USCA21100608
INDEX 01 00:00:00
FILE "05 Fortune.wav" WAVE
TRACK 05 AUDIO
TITLE "Fortune"
PERFORMER "Raul De Souza"
ISRC USCA21100615
INDEX 01 00:00:00
TRACK 06 AUDIO
TITLE "Overture"
PERFORMER "Raul De Souza"
ISRC USCA29501796
INDEX 00 04:07:03
FILE "06 Overture.wav" WAVE
INDEX 01 00:00:00
FILE "07 At The Concert.wav" WAVE
TRACK 07 AUDIO
TITLE "At The Concert"
PERFORMER "Raul De Souza"
ISRC USCA21100606
INDEX 01 00:00:00
TRACK 08 AUDIO
TITLE "I Believe You"
PERFORMER "Raul De Souza"
ISRC USCA21100616
INDEX 00 05:07:36
FILE "08 I Believe You.wav" WAVE
INDEX 01 00:00:00
FILE "09 Jump Street.wav" WAVE
TRACK 09 AUDIO
TITLE "Jump Street"
PERFORMER "Raul De Souza"
ISRC USCA21100617
INDEX 01 00:00:00
Доп. информация: http://www.universal-music.co.jp/p/UCCU-90217/
https://www.discogs.com/Raul-de-Souza-Dont-Ask-My-Neighbors/release/1696771
22:42
396
Нет комментариев. Ваш будет первым!