Поиск

(Afro-Cuban Jazz, Funk) Mombasa & Mombasa 2 - African Rhythms & Blues (1975-1976) - 2006-2008, FLAC (image+.cue) lossless

(Afro-Cuban Jazz, Funk) Mombasa & Mombasa 2 - African Rhythms & Blues (1975-1976) - 2006-2008, FLAC (image+.cue) lossless
Треклист:
Mombasa / African Rhythms & Blues (1975)
Жанр: Afro-Cuban Jazz, Funk
Страна-производитель диска: Germany
Год издания диска: 2006
Издатель (лейбл): Sonorama Records
Номер по каталогу: Sonorama C-17
Аудио кодек: FLAC (*.flac)
Тип рипа: image+.cue
Битрейт аудио: lossless
Продолжительность: 37:15
Источник (релизер): cd
Наличие сканов в содержимом раздачи: нет
Треклист:
01 Nairobi (7:33)
02 Massai (8:04)
03 Holz (4:23)
04 Kenia (6:49)
05 Makishi (2:36)
06 Shango (7:49)
 
Лог создания рипа
Exact Audio Copy V1.0 beta 1 from 15. November 2010
EAC extraction logfile from 15. May 2011, 15:10
Mombasa / African Rhythms & Blues
Used drive : ASUS CRW-4816A Adapter: 2 ID: 1
Read mode : Secure
Utilize accurate stream : Yes
Defeat audio cache : Yes
Make use of C2 pointers : No
Read offset correction : 12
Overread into Lead-In and Lead-Out : No
Fill up missing offset samples with silence : Yes
Delete leading and trailing silent blocks : No
Null samples used in CRC calculations : Yes
Used interface : Installed external ASPI interface
Used output format : User Defined Encoder
Selected bitrate : 1024 kBit/s
Quality : High
Add ID3 tag : No
Command line compressor : C:\Program Files\Exact Audio Copy\Flac\flac.exe
Additional command line options : -8 -V %s
TOC of the extracted CD
Track | Start | Length | Start sector | End sector
---------------------------------------------------------
1 | 0:00.00 | 7:33.27 | 0 | 34001
2 | 7:33.27 | 8:04.33 | 34002 | 70334
3 | 15:37.60 | 4:23.05 | 70335 | 90064
4 | 20:00.65 | 6:49.21 | 90065 | 120760
5 | 26:50.11 | 2:36.15 | 120761 | 132475
6 | 29:26.26 | 7:48.70 | 132476 | 167645
Range status and errors
Selected range
Filename J:\temp\nnm\Mombasa - African Rhythms & Blues.wav
Peak level 98.8 %
Extraction speed 1.7 X
Range quality 100.0 %
Test CRC 6449762B
Copy CRC 6449762B
Copy OK
No errors occurred
AccurateRip summary
Track 1 accurately ripped (confidence 1) [A7B6D65F]
Track 2 accurately ripped (confidence 1) [23DBEC35]
Track 3 accurately ripped (confidence 1) [603E3567]
Track 4 accurately ripped (confidence 1) [E3C452D6]
Track 5 accurately ripped (confidence 1) [BEF1B76C]
Track 6 accurately ripped (confidence 1) [6463B62C]
All tracks accurately ripped
End of status report

Mombasa 2 / African Rhythms & Blues (1976)
Жанр: Afro-Cuban Jazz, Funk
Страна-производитель диска: Germany
Год издания диска: 2008
Издатель (лейбл): Sonorama Records
Номер по каталогу: Sonorama C-30
Аудио кодек: FLAC (*.flac)
Тип рипа: image+.cue
Битрейт аудио: lossless
Продолжительность: 41:13
Источник (релизер): cd
Наличие сканов в содержимом раздачи: нет
Треклист:
01 Yenyeri (6:52)
02 Holz II (5:33)
03 Shango II (8:42)
04 Nomoli (9:46)
05 African Hustle (5:32)
06 Al Rahman (4:48)
 
Лог создания рипа
Exact Audio Copy V1.0 beta 1 from 15. November 2010
EAC extraction logfile from 15. May 2011, 15:25
Mombasa / African Rhythms & Blues 2
Used drive : ASUS CRW-4816A Adapter: 2 ID: 1
Read mode : Secure
Utilize accurate stream : Yes
Defeat audio cache : Yes
Make use of C2 pointers : No
Read offset correction : 12
Overread into Lead-In and Lead-Out : No
Fill up missing offset samples with silence : Yes
Delete leading and trailing silent blocks : No
Null samples used in CRC calculations : Yes
Used interface : Installed external ASPI interface
Used output format : User Defined Encoder
Selected bitrate : 1024 kBit/s
Quality : High
Add ID3 tag : No
Command line compressor : C:\Program Files\Exact Audio Copy\Flac\flac.exe
Additional command line options : -8 -V %s
TOC of the extracted CD
Track | Start | Length | Start sector | End sector
---------------------------------------------------------
1 | 0:00.00 | 6:51.71 | 0 | 30895
2 | 6:51.71 | 5:33.09 | 30896 | 55879
3 | 12:25.05 | 8:42.03 | 55880 | 95032
4 | 21:07.08 | 9:46.07 | 95033 | 138989
5 | 30:53.15 | 5:31.69 | 138990 | 163883
6 | 36:25.09 | 4:48.15 | 163884 | 185498
Range status and errors
Selected range
Filename J:\temp\nnm\Mombasa - African Rhythms & Blues 2.wav
Peak level 85.4 %
Extraction speed 0.9 X
Range quality 100.0 %
Test CRC E31C011E
Copy CRC E31C011E
Copy OK
No errors occurred
AccurateRip summary
Track 1 not present in database
Track 2 not present in database
Track 3 not present in database
Track 4 not present in database
Track 5 not present in database
Track 6 not present in database
None of the tracks are present in the AccurateRip database
End of status report
20:44
219
Нет комментариев. Ваш будет первым!