Поиск

(Afro-Cuban Jazz) Francisco Aguabella - Ochimini - 2004, APE (image+.cue), lossless

Francisco Aguabella / Ochimini
Жанр: Afro-Cuban Jazz
Страна-производитель диска: USA
Год издания диска: 2004
Издатель (лейбл): CuBop
Номер по каталогу: CBCD042
Страна: Matanzas, Cuba
Аудиокодек: APE (*.ape)
Тип рипа: image+.cue
Битрейт аудио: lossless
Продолжительность: 00:51:31
Источник (релизер): dreadbull
Наличие сканов в содержимом раздачи: да
Треклист:
01. Ochimini [05:41]
02. Funky Cha [04:52]
03. Love For Sale [07:06]
04. Nuestra Era [04:42]
05. OBA [07:17]
06. Tumbaito [05:34]
07. Guajira Candela [06:07]
08. Makin' Whoopee [04:40]
09. Te Olvide [05:29]
 
Лог создания рипа
EAC extraction logfile from 24. June 2010, 19:10 for CD
Francisco Aguabella / Ochimini
Used drive : PLEXTOR DVDR PX-750A Adapter: 0 ID: 1
Read mode : Secure with NO C2, accurate stream, disable cache
Read offset correction : 102
Overread into Lead-In and Lead-Out : No
Used output format : Internal WAV Routines
44.100 Hz; 16 Bit; Stereo
Other options :
Fill up missing offset samples with silence : Yes
Delete leading and trailing silent blocks : No
Installed external ASPI interface
Range status and errors
Selected range
Filename E:\Donkey Files\Francisco Aguabella - Ochimini (2004, CuBop) [eac-ape-scans] byDrBull\CDImage.wav
Peak level 98.0 %
Range quality 100.0 %
CRC F7AF3322
Copy OK
No errors occured
End of status report
 
Содержание индексной карты (.CUE)
PERFORMER "Francisco Aguabella"
TITLE "Ochimini"
FILE "CDImage.wav" WAVE
TRACK 01 AUDIO
TITLE "Ochimini"
PERFORMER "Francisco Aguabella"
INDEX 01 00:00:00
TRACK 02 AUDIO
TITLE "Funky Cha"
PERFORMER "Francisco Aguabella"
INDEX 00 05:39:33
INDEX 01 05:41:33
TRACK 03 AUDIO
TITLE "Love For Sale"
PERFORMER "Francisco Aguabella"
INDEX 00 10:32:47
INDEX 01 10:33:47
TRACK 04 AUDIO
TITLE "Nuestra Era"
PERFORMER "Francisco Aguabella"
INDEX 00 17:38:17
INDEX 01 17:39:57
TRACK 05 AUDIO
TITLE "OBA"
PERFORMER "Francisco Aguabella"
INDEX 00 22:20:16
INDEX 01 22:22:16
TRACK 06 AUDIO
TITLE "Tumbaito"
PERFORMER "Francisco Aguabella"
INDEX 00 29:37:35
INDEX 01 29:39:35
TRACK 07 AUDIO
TITLE "Guajira Candela"
PERFORMER "Francisco Aguabella"
INDEX 00 35:12:12
INDEX 01 35:14:12
TRACK 08 AUDIO
TITLE "Makin' Whoopee"
PERFORMER "Francisco Aguabella"
INDEX 00 41:19:16
INDEX 01 41:21:16
TRACK 09 AUDIO
TITLE "Te Olvide"
PERFORMER "Francisco Aguabella"
INDEX 00 45:59:64
INDEX 01 46:01:34
 
Состав
Francisco Aguabella - congas & percussion;
Luis Eric Gonzalez - trumpet (#1,3,7-9);
Sal Cracchiolo - trumpet (#2,4-6);
Justo Almario - tenor (#1-4,6-9) & alto (#4,5) sax;
Francisco Torres - trombone (#1,3,7-9);
Jules Rowell - trombone (#2,4-6);
Donald Vega - piano;
John Belzaguy - bass;
Conra "Coky" Garcia - timbales (#1,7-9), drums (#3);
Jimmy Branly - drums (#2,4-6);
Poncho Sanchez - congas (#7);
Alfredo Ortiz - percussion (#7), vocals (#7,9);
Fermin Sifontes - vocals (#7,9)
23:33
260
Нет комментариев. Ваш будет первым!