Поиск

(Afro-Cuban Jazz, Cool, Latin Jazz) Cal Tjader - Descarga {Agua Dulce (1971), Live at the Funky Quarters (1972)} - 1995, FLAC (tracks+.cue), lossless

(Afro-Cuban Jazz, Cool, Latin Jazz) Cal Tjader - Descarga {Agua Dulce (1971), Live at the Funky Quarters (1972)} - 1995, FLAC (tracks+.cue), lossless
Треклист:
Cal Tjader - Descarga
Жанр: Afro-Cuban Jazz, Cool, Latin Jazz
Страна-производитель диска: США
Год издания: 1995
Издатель (лейбл): Fantasy
Номер по каталогу: FCD-24737-2
Аудиокодек: FLAC (*.flac)
Тип рипа: tracks+.cue
Битрейт аудио: lossless
Продолжительность: 78:29
Источник (релизер): ukasoy (what)
Наличие сканов в содержимом раздачи: нет
Треклист:
Agua Dulce (1971)
01. Agua Dulce (Cool-Ade) (4:09)
02. Curacao (5:38)
03. Somewhere in the Night (4:25)
04. Gimme Shelter (2:54)
05. Ran Kan Kan (3:03)
06. Descarga Cubana (3:06)
07. Invitation (3:04)
08. Now (5:28)
09. Morning (3:32)
Live at the Funky Quarters (1972)
10. Leyte (6:28)
11. Mother and Child (5:59)
12. Cubano Chant (4:53)
13. Soul Sauce III (6:32)
14. Philly Mambo (6:38)
15. Davito (4:25)
16. Manteca (8:15)
 
Лог создания рипа
Exact Audio Copy V1.0 beta 3 from 29. August 2011
EAC extraction logfile from 8. August 2013, 21:57
Cal Tjader / Descarga (Agua Dulce / Live At The Funky Quarters)
Used drive : HL-DT-STDVDRAM GH24NS50 Adapter: 2 ID: 5
Read mode : Secure
Utilize accurate stream : Yes
Defeat audio cache : Yes
Make use of C2 pointers : No
Read offset correction : 667
Overread into Lead-In and Lead-Out : No
Fill up missing offset samples with silence : Yes
Delete leading and trailing silent blocks : No
Null samples used in CRC calculations : Yes
Used interface : Native Win32 interface for Win NT & 2000
Gap handling : Appended to previous track
Used output format : User Defined Encoder
Selected bitrate : 1024 kBit/s
Quality : High
Add ID3 tag : Yes
Command line compressor : C:\Program Files (x86)\FLAC\flac.exe
Additional command line options : -8 -V -T "ARTIST=%artist%" -T "TITLE=%title%" -T "ALBUM=%albumtitle%" -T "DATE=%year%" -T "TRACKNUMBER=%tracknr%" -T "GENRE=%genre%" -T "PERFORMER=%albuminterpret%" -T "COMPOSER=%composer%" %haslyrics%--tag-from-file=LYRICS="%lyricsfile%"%haslyrics% -T "ALBUMARTIST=%albumartist%" -T "DISCNUMBER=%cdnumber%" -T "TOTALDISCS=%totalcds%" -T "TOTALTRACKS=%numtracks%" -T "COMMENT=%comment%" %source% -o %dest%
TOC of the extracted CD
Track | Start | Length | Start sector | End sector
---------------------------------------------------------
1 | 0:00.00 | 4:08.60 | 0 | 18659
2 | 4:08.60 | 5:38.20 | 18660 | 44029
3 | 9:47.05 | 4:25.25 | 44030 | 63929
4 | 14:12.30 | 2:53.53 | 63930 | 76957
5 | 17:06.08 | 3:02.72 | 76958 | 90679
6 | 20:09.05 | 3:06.13 | 90680 | 104642
7 | 23:15.18 | 3:04.15 | 104643 | 118457
8 | 26:19.33 | 5:27.62 | 118458 | 143044
9 | 31:47.20 | 3:32.13 | 143045 | 158957
10 | 35:19.33 | 6:28.05 | 158958 | 188062
11 | 41:47.38 | 5:59.30 | 188063 | 215017
12 | 47:46.68 | 4:53.10 | 215018 | 237002
13 | 52:40.03 | 6:32.07 | 237003 | 266409
14 | 59:12.10 | 6:37.58 | 266410 | 296242
15 | 65:49.68 | 4:25.37 | 296243 | 316154
16 | 70:15.30 | 8:14.68 | 316155 | 353272
Track 1
Filename K:\EAC\Cal Tjader - Descarga (Agua Dulce , Live At The Funky Quarters) (1971)\01 Agua Dulce (Cool-Ade).wav
Pre-gap length 0:00:02.00
Peak level 93.4 %
Extraction speed 1.2 X
Track quality 100.0 %
Test CRC 947FF835
Copy CRC 947FF835
Track not present in AccurateRip database
Copy OK
Track 2
Filename K:\EAC\Cal Tjader - Descarga (Agua Dulce , Live At The Funky Quarters) (1971)\02 Caracao.wav
Pre-gap length 0:00:01.20
Peak level 73.9 %
Extraction speed 1.4 X
Track quality 100.0 %
Test CRC F2B532FE
Copy CRC F2B532FE
Track not present in AccurateRip database
Copy OK
Track 3
Filename K:\EAC\Cal Tjader - Descarga (Agua Dulce , Live At The Funky Quarters) (1971)\03 Somewhere in the Night.wav
Pre-gap length 0:00:01.45
Peak level 73.7 %
Extraction speed 1.5 X
Track quality 100.0 %
Test CRC 9FA66298
Copy CRC 9FA66298
Track not present in AccurateRip database
Copy OK
Track 4
Filename K:\EAC\Cal Tjader - Descarga (Agua Dulce , Live At The Funky Quarters) (1971)\04 Gimme Shelter.wav
Pre-gap length 0:00:01.35
Peak level 93.9 %
Extraction speed 1.4 X
Track quality 100.0 %
Test CRC CE8E8414
Copy CRC CE8E8414
Track not present in AccurateRip database
Copy OK
Track 5
Filename K:\EAC\Cal Tjader - Descarga (Agua Dulce , Live At The Funky Quarters) (1971)\05 Ran Kan Kan.wav
Pre-gap length 0:00:00.45
Peak level 64.2 %
Extraction speed 1.5 X
Track quality 100.0 %
Test CRC 0E043F95
Copy CRC 0E043F95
Track not present in AccurateRip database
Copy OK
Track 6
Filename K:\EAC\Cal Tjader - Descarga (Agua Dulce , Live At The Funky Quarters) (1971)\06 Descarga Cubana.wav
Pre-gap length 0:00:01.70
Peak level 81.1 %
Extraction speed 1.6 X
Track quality 100.0 %
Test CRC E2C21532
Copy CRC E2C21532
Track not present in AccurateRip database
Copy OK
Track 7
Filename K:\EAC\Cal Tjader - Descarga (Agua Dulce , Live At The Funky Quarters) (1971)\07 Invitation.wav
Pre-gap length 0:00:02.05
Peak level 64.2 %
Extraction speed 1.6 X
Track quality 100.0 %
Test CRC E4240A42
Copy CRC E4240A42
Track not present in AccurateRip database
Copy OK
Track 8
Filename K:\EAC\Cal Tjader - Descarga (Agua Dulce , Live At The Funky Quarters) (1971)\08 Now.wav
Pre-gap length 0:00:01.08
Peak level 71.4 %
Extraction speed 1.9 X
Track quality 100.0 %
Test CRC 705C2476
Copy CRC 705C2476
Track not present in AccurateRip database
Copy OK
Track 9
Filename K:\EAC\Cal Tjader - Descarga (Agua Dulce , Live At The Funky Quarters) (1971)\09 Morning.wav
Pre-gap length 0:00:00.70
Peak level 76.8 %
Extraction speed 1.6 X
Track quality 99.9 %
Test CRC C021A891
Copy CRC C021A891
Track not present in AccurateRip database
Copy OK
Track 10
Filename K:\EAC\Cal Tjader - Descarga (Agua Dulce , Live At The Funky Quarters) (1971)\10 Leyte.wav
Pre-gap length 0:00:02.20
Peak level 63.5 %
Extraction speed 1.9 X
Track quality 99.9 %
Test CRC 9BBFAD28
Copy CRC 9BBFAD28
Track not present in AccurateRip database
Copy OK
Track 11
Filename K:\EAC\Cal Tjader - Descarga (Agua Dulce , Live At The Funky Quarters) (1971)\11 Mother and Child.wav
Pre-gap length 0:00:01.58
Peak level 58.5 %
Extraction speed 2.1 X
Track quality 100.0 %
Test CRC 2A897EE3
Copy CRC 2A897EE3
Track not present in AccurateRip database
Copy OK
Track 12
Filename K:\EAC\Cal Tjader - Descarga (Agua Dulce , Live At The Funky Quarters) (1971)\12 Cubano Chant.wav
Pre-gap length 0:00:01.70
Peak level 61.0 %
Extraction speed 2.0 X
Track quality 99.9 %
Test CRC 2428E261
Copy CRC 2428E261
Track not present in AccurateRip database
Copy OK
Track 13
Filename K:\EAC\Cal Tjader - Descarga (Agua Dulce , Live At The Funky Quarters) (1971)\13 Soul Sauce III.wav
Pre-gap length 0:00:01.38
Peak level 49.8 %
Extraction speed 2.2 X
Track quality 99.9 %
Test CRC 87079C77
Copy CRC 87079C77
Track not present in AccurateRip database
Copy OK
Track 14
Filename K:\EAC\Cal Tjader - Descarga (Agua Dulce , Live At The Funky Quarters) (1971)\14 Philly Mambo.wav
Pre-gap length 0:00:01.02
Peak level 60.5 %
Extraction speed 2.5 X
Track quality 100.0 %
Test CRC 2FDD5F45
Copy CRC 2FDD5F45
Track not present in AccurateRip database
Copy OK
Track 15
Filename K:\EAC\Cal Tjader - Descarga (Agua Dulce , Live At The Funky Quarters) (1971)\15 Davito.wav
Pre-gap length 0:00:01.33
Peak level 79.5 %
Extraction speed 2.4 X
Track quality 100.0 %
Test CRC 890577F4
Copy CRC 890577F4
Track not present in AccurateRip database
Copy OK
Track 16
Filename K:\EAC\Cal Tjader - Descarga (Agua Dulce , Live At The Funky Quarters) (1971)\16 Manteca.wav
Pre-gap length 0:00:01.10
Peak level 53.9 %
Extraction speed 2.7 X
Track quality 100.0 %
Test CRC E5416777
Copy CRC E5416777
Track not present in AccurateRip database
Copy OK
None of the tracks are present in the AccurateRip database
No errors occurred
End of status report
---- CUETools DB Plugin V2.1.3
[CTDB TOCID: id71YNeiTD.m24iPOFMpr3bBVkk-] disk not present in database, Submit result: id71YNeiTD.m24iPOFMpr3bBVkk- has been uploaded
==== Log checksum 8A08A524DAB2F556BAE6B8EDD7A2334A143A5E22259676BD1D2C5EBCD550BA4F ====
 
Содержание индексной карты (.CUE)
REM GENRE Jazz
REM DATE 1995
REM DISCID E1126610
REM COMMENT "ExactAudioCopy v1.0b3"
PERFORMER "Cal Tjader"
TITLE "Descarga"
FILE "01 - Agua Dulce (Cool-Ade).wav" WAVE
TRACK 01 AUDIO
TITLE "Agua Dulce (Cool-Ade)"
PERFORMER "Cal Tjader"
INDEX 01 00:00:00
TRACK 02 AUDIO
TITLE "Curacao"
PERFORMER "Cal Tjader"
INDEX 00 04:07:40
FILE "02 - Curacao.wav" WAVE
INDEX 01 00:00:00
TRACK 03 AUDIO
TITLE "Somewhere in the Night"
PERFORMER "Cal Tjader"
INDEX 00 05:36:50
FILE "03 - Somewhere in the Night.wav" WAVE
INDEX 01 00:00:00
TRACK 04 AUDIO
TITLE "Gimme Shelter"
PERFORMER "Cal Tjader"
INDEX 00 04:23:65
FILE "04 - Gimme Shelter.wav" WAVE
INDEX 01 00:00:00
TRACK 05 AUDIO
TITLE "Ran Kan Kan"
PERFORMER "Cal Tjader"
INDEX 00 02:53:08
FILE "05 - Ran Kan Kan.wav" WAVE
INDEX 01 00:00:00
TRACK 06 AUDIO
TITLE "Descarga Cubana"
PERFORMER "Cal Tjader"
INDEX 00 03:01:02
FILE "06 - Descarga Cubana.wav" WAVE
INDEX 01 00:00:00
TRACK 07 AUDIO
TITLE "Invitation"
PERFORMER "Cal Tjader"
INDEX 00 03:04:08
FILE "07 - Invitation.wav" WAVE
INDEX 01 00:00:00
TRACK 08 AUDIO
TITLE "Now"
PERFORMER "Cal Tjader"
INDEX 00 03:03:07
FILE "08 - Now.wav" WAVE
INDEX 01 00:00:00
TRACK 09 AUDIO
TITLE "Morning"
PERFORMER "Cal Tjader"
INDEX 00 05:26:67
FILE "09 - Morning.wav" WAVE
INDEX 01 00:00:00
TRACK 10 AUDIO
TITLE "Leyte"
PERFORMER "Cal Tjader"
INDEX 00 03:29:69
FILE "10 - Leyte.wav" WAVE
INDEX 01 00:00:00
TRACK 11 AUDIO
TITLE "Mother and Child"
PERFORMER "Cal Tjader"
INDEX 00 06:26:22
FILE "11 - Mother and Child.wav" WAVE
INDEX 01 00:00:00
TRACK 12 AUDIO
TITLE "Cubano Chant"
PERFORMER "Cal Tjader"
INDEX 00 05:57:35
FILE "12 - Cubano Chant.wav" WAVE
INDEX 01 00:00:00
TRACK 13 AUDIO
TITLE "Soul Sauce III"
PERFORMER "Cal Tjader"
INDEX 00 04:51:47
FILE "13 - Soul Sauce III.wav" WAVE
INDEX 01 00:00:00
TRACK 14 AUDIO
TITLE "Philly Mambo"
PERFORMER "Cal Tjader"
INDEX 00 06:31:05
FILE "14 - Philly Mambo.wav" WAVE
INDEX 01 00:00:00
TRACK 15 AUDIO
TITLE "Davito"
PERFORMER "Cal Tjader"
INDEX 00 06:36:25
FILE "15 - Davito.wav" WAVE
INDEX 01 00:00:00
TRACK 16 AUDIO
TITLE "Manteca"
PERFORMER "Cal Tjader"
INDEX 00 04:24:27
FILE "16 - Manteca.wav" WAVE
INDEX 01 00:00:00
 
Отчет CUETools
[CUETools log; Date: 14.08.2013 1:30:28; Version: 2.1.4]
[CTDB TOCID: id71YNeiTD.m24iPOFMpr3bBVkk-] found.
Track | CTDB Status
1 | (1/1) Accurately ripped
2 | (1/1) Accurately ripped
3 | (1/1) Accurately ripped
4 | (1/1) Accurately ripped
5 | (1/1) Accurately ripped
6 | (1/1) Accurately ripped
7 | (1/1) Accurately ripped
8 | (1/1) Accurately ripped
9 | (1/1) Accurately ripped
10 | (1/1) Accurately ripped
11 | (1/1) Accurately ripped
12 | (1/1) Accurately ripped
13 | (1/1) Accurately ripped
14 | (1/1) Accurately ripped
15 | (1/1) Accurately ripped
16 | (1/1) Accurately ripped
[AccurateRip ID: 002911c7-01f5b00d-e1126610] found.
Track [ CRC | V2 ] Status
01 [a73bc3b2|46c4169c] (0+0/0) No match
02 [57aadac8|e0af40e9] (0+0/0) No match
03 [23908b71|e8c0be5d] (0+0/0) No match
04 [f9678679|10378a5f] (0+0/0) No match
05 [c07e2196|04f929b0] (0+0/0) No match
06 [ebff81f1|86697df8] (0+0/0) No match
07 [8173ad08|95cd251f] (0+0/0) No match
08 [654ad050|929b24a8] (0+0/0) No match
09 [31401afb|b659a65d] (0+0/0) No match
10 [a2bb3526|930eeae8] (0+0/0) No match
11 [1356696c|1e2d5fd2] (0+0/0) No match
12 [cae1615e|1c1d26a5] (0+0/0) No match
13 [f85e6b67|a657c623] (0+0/0) No match
14 [ef6b5f11|737ab1fa] (0+0/0) No match
15 [037682d2|18e6fc17] (0+0/0) No match
16 [172f91be|2e07883b] (0+0/0) No match
Offsetted by -287:
01 [1924fd2f] (0/0) No match (V2 was not tested)
02 [27ec89ad] (0/0) No match (V2 was not tested)
03 [688b53a9] (0/0) No match (V2 was not tested)
04 [43e36dad] (0/0) No match (V2 was not tested)
05 [53898e4d] (0/0) No match (V2 was not tested)
06 [530363ba] (0/0) No match (V2 was not tested)
07 [04fbcb5d] (0/0) No match (V2 was not tested)
08 [e92a8c6b] (0/0) No match (V2 was not tested)
09 [d0faa2db] (0/0) No match (V2 was not tested)
10 [961650b1] (0/0) No match (V2 was not tested)
11 [520897e3] (0/0) No match (V2 was not tested)
12 [3e873772] (0/0) No match (V2 was not tested)
13 [44c2473a] (0/0) No match (V2 was not tested)
14 [57a48c74] (0/0) No match (V2 was not tested)
15 [a7f4a222] (0/0) No match (V2 was not tested)
16 [9db4be23] (0/0) No match (V2 was not tested)
Track Peak [ CRC32 ] [W/O NULL] [ LOG ]
-- 93,9 [C7819409] [A6A9A141]
01 93,4 [947FF835] [A754A5B4] CRC32
02 73,9 [F2B532FE] [A0EA8CC9] CRC32
03 73,7 [9FA66298] [684D1B3B] CRC32
04 93,9 [CE8E8414] [43BB3F39] CRC32
05 64,2 [0E043F95] [717AC628] CRC32
06 81,1 [E2C21532] [8F83AAD9] CRC32
07 64,2 [E4240A42] [79F2F2CF] CRC32
08 71,4 [705C2476] [7C079772] CRC32
09 76,8 [C021A891] [1F333C79] CRC32
10 63,5 [9BBFAD28] [5D24EE38] CRC32
11 58,5 [2A897EE3] [58B7DAF4] CRC32
12 61,0 [2428E261] [D4129FC0] CRC32
13 49,8 [87079C77] [0073813E] CRC32
14 60,5 [2FDD5F45] [23ACCC6D] CRC32
15 79,5 [890577F4] [D5C45F1D] CRC32
16 53,9 [E5416777] [FAFD770A] CRC32
 
Review by Richard S. Ginell
Descarga is a merger of two albums recorded near the beginning of the '70s -- the fascinating studio session Aqua Dulce and the self-explanatory Live at the Funky Quarters. Having not yet lost his yen for adventure from the Verve days, Tjader neatly integrates Al Zulaica's Rhodes electric piano, electronic effects, and occasionally horns and voices into a bedrock Latin format, and the combination works even at its most outlandish. Two of the reasons why Aqua Dulce stays on track are the solid Latin percussion team of Pete and Coke Escovedo and Michael Smithe, and that Tjader's rippling, to-the-point, easily adaptable vibraphone manner hadn't changed a whit over the years. The title track, "Agua Dulce (Cool Ade)," is a lot of fun, with its electronic bubbling and straight Latin grooves, and Cal even tackles the Rolling Stones' "Gimme Shelter," adding pink noise and spacy obligatos from an early Moog synthesizer. Much of the live portion of the CD -- recorded at a San Diego nightclub in 1972 -- has a sound tied even more closely to its time, with Zulaica's electric piano, John Heard's bass, and Dick Berk's drums often creating textures that evoke the jazz-rock era. Smithe's congas merely add punctuation, except when Tjader himself joins in on percussion, thus creating some Latin action. Nevertheless, this live gig is quite enjoyable and energetic, sprinkled with new material and updated Tjader standards like "Cubano Chant," "Manteca," and "Soul Sauce III (Guarachi Guaro)." On the CD release, "Theme" was deleted for lack of space, though the 78 & 1/2-minute disc remains generously packed.
11:57
252
Нет комментариев. Ваш будет первым!