Поиск

(afro-beat, funk, folk, jazz) VA - Ethiopiques (Vol.13) - Ethiopian Groove (The Golden Seventies) - 2003, FLAC (tracks+.cue), lossless

(afro-beat, funk, folk, jazz) VA - Ethiopiques (Vol.13) - Ethiopian Groove (The Golden Seventies) - 2003, FLAC (tracks+.cue), lossless
Треклист:
Ethiopiques (Vol.13) - Ethiopian Groove (The Golden Seventies)
Жанр: afro-beat, funk, folk, jazz
Страна-производитель диска: France
Год издания: 2003
Издатель (лейбл): Buda Musique
Номер по каталогу: 82255-2
Страна: Ethiopia
Аудиокодек: FLAC (*.flac)
Тип рипа: tracks+.cue
Битрейт аудио: lossless
Продолжительность: 01:07:46
Источник (релизер): What.cd
Наличие сканов в содержимом раздачи: нет
Треклист:
1. Tashamanaletch - Alemayehu Eshete
2. Ewnetegna Feger - Hirut Beqele
3. Metch Ene Terf Feleghu - Wallias Band
4. Wededku Afgerkush - Alemayehu Eshete
5. Antchin Yagegnulet - Tamrat Ferendji
6. Muziqa Muziqa - Wallias Band
7. Atraqegn - Bzunesh Beqele
8. Yemendjar Shega - Dahlak Band
9. Muziqawi Silt - Wallias Band
10. Djemeregne - Muluqen Mellesse
11. Feqer Aydelem Wey - Ayalew Mesfin
12. Ya Djaleleto - Tamrat Ferendji
13. Tegel New - Bzunesh Begele
14. Gud Aderegetchegn - Ayalew Mesfin
15. Gedawo - Ayalew Mesfin
16. Metche New - Asselefetch Ashine & Getenesh Kebret
17. Amlak Abet Abet - Asselefetch Ashine & Getenesh Kebret
 
Лог создания рипа
Exact Audio Copy V0.99 prebeta 5 from 4. May 2009
EAC extraction logfile from 17. November 2010, 14:38
Various / Йthiopiques (Volume 13) Ethiopian Groove
Used drive : hp DVD A DH16AAL Adapter: 0 ID: 1
Read mode : Secure
Utilize accurate stream : Yes
Defeat audio cache : Yes
Make use of C2 pointers : No
Read offset correction : 6
Overread into Lead-In and Lead-Out : No
Fill up missing offset samples with silence : Yes
Delete leading and trailing silent blocks : No
Null samples used in CRC calculations : Yes
Used interface : Native Win32 interface for Win NT & 2000
Gap handling : Appended to previous track
Used output format : Internal WAV Routines
Sample format : 44.100 Hz; 16 Bit; Stereo
TOC of the extracted CD
Track | Start | Length | Start sector | End sector
---------------------------------------------------------
1 | 0:00.00 | 4:07.67 | 0 | 18591
2 | 4:07.67 | 3:15.18 | 18592 | 33234
3 | 7:23.10 | 2:21.09 | 33235 | 43818
4 | 9:44.19 | 5:11.57 | 43819 | 67200
5 | 14:56.01 | 4:04.31 | 67201 | 85531
6 | 19:00.32 | 3:43.11 | 85532 | 102267
7 | 22:43.43 | 2:55.46 | 102268 | 115438
8 | 25:39.14 | 2:33.41 | 115439 | 126954
9 | 28:12.55 | 3:46.25 | 126955 | 143929
10 | 31:59.05 | 7:29.55 | 143930 | 177659
11 | 39:28.60 | 4:07.34 | 177660 | 196218
12 | 43:36.19 | 4:32.15 | 196219 | 216633
13 | 48:08.34 | 3:31.21 | 216634 | 232479
14 | 51:39.55 | 3:48.24 | 232480 | 249603
15 | 55:28.04 | 4:03.17 | 249604 | 267845
16 | 59:31.21 | 3:33.32 | 267846 | 283852
17 | 63:04.53 | 4:40.61 | 283853 | 304913
Track 1
Filename C:\EAC Rips\Йthiopiques (Volume 13) Ethiopian Groove (1970) (flac)\01. Alиmayиhu Eshиtй & Shиbиlй's Band - Tashamanalиtch.wav
Pre-gap length 0:00:02.00
Peak level 99.9 %
Track quality 100.0 %
Test CRC 8554F838
Copy CRC 8554F838
Accurately ripped (confidence 7) [FC6F4C58]
Copy OK
Track 2
Filename C:\EAC Rips\Йthiopiques (Volume 13) Ethiopian Groove (1970) (flac)\02. Hirut Bиqиlи & Police Orchestra - Ewnиtиgna feqer.wav
Pre-gap length 0:00:01.82
Peak level 99.8 %
Track quality 99.9 %
Test CRC A36C8026
Copy CRC A36C8026
Accurately ripped (confidence 7) [1DB4BA1C]
Copy OK
Track 3
Filename C:\EAC Rips\Йthiopiques (Volume 13) Ethiopian Groove (1970) (flac)\03. Seyoum Gиbrиyиs & Wallias Band - Mиtch enй terf fиlиghu.wav
Pre-gap length 0:00:01.70
Peak level 99.8 %
Track quality 99.9 %
Test CRC 7D4D801A
Copy CRC 7D4D801A
Accurately ripped (confidence 7) [8BFEFF50]
Copy OK
Track 4
Filename C:\EAC Rips\Йthiopiques (Volume 13) Ethiopian Groove (1970) (flac)\04. Alиmayиhu Eshиtй & Shиbиlй's Band - Wиdиdku afqиrkush.wav
Pre-gap length 0:00:01.93
Peak level 99.8 %
Track quality 100.0 %
Test CRC E8593A77
Copy CRC E8593A77
Accurately ripped (confidence 7) [D6EA773F]
Copy OK
Track 5
Filename C:\EAC Rips\Йthiopiques (Volume 13) Ethiopian Groove (1970) (flac)\05. Tamrat Fиrиndji & Sensation Band - Antchin yagиgnulиt.wav
Pre-gap length 0:00:01.90
Peak level 99.8 %
Track quality 99.9 %
Test CRC C0596D66
Copy CRC C0596D66
Accurately ripped (confidence 7) [C7BC424B]
Copy OK
Track 6
Filename C:\EAC Rips\Йthiopiques (Volume 13) Ethiopian Groove (1970) (flac)\06. Seyoum Gиbrиyиs & Wallias Band - Muziqa Muziqa.wav
Pre-gap length 0:00:00.94
Peak level 99.8 %
Track quality 99.9 %
Test CRC 6CBF6A6D
Copy CRC 6CBF6A6D
Accurately ripped (confidence 7) [655D1403]
Copy OK
Track 7
Filename C:\EAC Rips\Йthiopiques (Volume 13) Ethiopian Groove (1970) (flac)\07. Bzunиsh Bиqиlи & Dahlak Band - Atraqиgn.wav
Pre-gap length 0:00:01.94
Peak level 99.8 %
Track quality 100.0 %
Test CRC E3FBA428
Copy CRC E3FBA428
Accurately ripped (confidence 7) [294D1985]
Copy OK
Track 8
Filename C:\EAC Rips\Йthiopiques (Volume 13) Ethiopian Groove (1970) (flac)\08. Muluqиn Mиllиssи & Dahlak Band - Yиmendjar shиga.wav
Pre-gap length 0:00:02.12
Peak level 99.9 %
Track quality 100.0 %
Test CRC C7EF9CED
Copy CRC C7EF9CED
Accurately ripped (confidence 7) [0A8899B1]
Copy OK
Track 9
Filename C:\EAC Rips\Йthiopiques (Volume 13) Ethiopian Groove (1970) (flac)\09. Wallias Band - Muziqawi Silt.wav
Pre-gap length 0:00:02.02
Peak level 99.9 %
Track quality 100.0 %
Test CRC 4667D8F8
Copy CRC 4667D8F8
Accurately ripped (confidence 7) [FE18E7B7]
Copy OK
Track 10
Filename C:\EAC Rips\Йthiopiques (Volume 13) Ethiopian Groove (1970) (flac)\10. Muluqen Mиllиssи & Dahlak Band - Djemeregne.wav
Pre-gap length 0:00:01.81
Peak level 99.8 %
Track quality 100.0 %
Test CRC 802E4576
Copy CRC 802E4576
Accurately ripped (confidence 7) [020D354C]
Copy OK
Track 11
Filename C:\EAC Rips\Йthiopiques (Volume 13) Ethiopian Groove (1970) (flac)\11. Ayalйw Mиsfin & Black Lion Band - Feqer aydиlиm wиy.wav
Pre-gap length 0:00:02.06
Peak level 99.8 %
Track quality 100.0 %
Test CRC 4B4E6F9A
Copy CRC 4B4E6F9A
Accurately ripped (confidence 7) [B74B557D]
Copy OK
Track 12
Filename C:\EAC Rips\Йthiopiques (Volume 13) Ethiopian Groove (1970) (flac)\12. Tamrat Fиrиndji & Sensation Band - Ya djalиlйto.wav
Pre-gap length 0:00:01.29
Peak level 99.8 %
Track quality 100.0 %
Test CRC 82E19BC5
Copy CRC 82E19BC5
Accurately ripped (confidence 7) [D1F1FB9E]
Copy OK
Track 13
Filename C:\EAC Rips\Йthiopiques (Volume 13) Ethiopian Groove (1970) (flac)\13. Bzunиsh Bиqиlи - Tegel nиw.wav
Pre-gap length 0:00:01.86
Peak level 99.8 %
Track quality 100.0 %
Test CRC B42FD05F
Copy CRC B42FD05F
Accurately ripped (confidence 7) [EDF07C21]
Copy OK
Track 14
Filename C:\EAC Rips\Йthiopiques (Volume 13) Ethiopian Groove (1970) (flac)\14. Ayalйw Mиsfin & Black Lion Band - Gud adиrиgиtchegn.wav
Pre-gap length 0:00:01.42
Peak level 99.8 %
Track quality 100.0 %
Test CRC 26289DB4
Copy CRC 26289DB4
Accurately ripped (confidence 7) [950AAFEA]
Copy OK
Track 15
Filename C:\EAC Rips\Йthiopiques (Volume 13) Ethiopian Groove (1970) (flac)\15. Ayalйw Mиsfin & Black Lion Band - Gedawo.wav
Pre-gap length 0:00:00.69
Peak level 99.8 %
Track quality 100.0 %
Test CRC A8C4451D
Copy CRC A8C4451D
Accurately ripped (confidence 6) [9D58AA1C]
Copy OK
Track 16
Filename C:\EAC Rips\Йthiopiques (Volume 13) Ethiopian Groove (1970) (flac)\16. Assиlиfиtch Ashinй & Gйtйnиsh Kebrиt & Army Band - Mиtchй nиw.wav
Pre-gap length 0:00:01.45
Peak level 99.8 %
Track quality 100.0 %
Test CRC B3A76245
Copy CRC B3A76245
Accurately ripped (confidence 7) [76876F2E]
Copy OK
Track 17
Filename C:\EAC Rips\Йthiopiques (Volume 13) Ethiopian Groove (1970) (flac)\17. Assиlиfиtch Ashinй & Getenиsh Kebrиt & Army Band - Amlak abйt abйt.wav
Pre-gap length 0:00:01.45
Peak level 99.8 %
Track quality 100.0 %
Test CRC B62E43EA
Copy CRC B62E43EA
Accurately ripped (confidence 7) [C70A0A2B]
Copy OK
All tracks accurately ripped
No errors occurred
End of status report
 
Содержание индексной карты (.CUE)
REM GENRE Ethiopiques
REM DATE 1970
REM DISCID F50FE111
REM COMMENT "ExactAudioCopy v0.99pb5"
PERFORMER "Various"
TITLE "Ethiopiques (Volume 13) Ethiopian Groove"
FILE "01. Alemayehu Eshete & Shebele's Band - Tashamanaletch.flac" WAVE
TRACK 01 AUDIO
TITLE "Tashamanaletch"
PERFORMER "Alemayehu Eshete & Shebele's Band"
INDEX 01 00:00:00
TRACK 02 AUDIO
TITLE "Ewnetegna Feger"
PERFORMER "Hirut Beqele & Police Orchestra"
INDEX 00 04:06:05
FILE "02. Hirut Beqele & Police Orchestra - Ewnetegna feqer.flac" WAVE
INDEX 01 00:00:00
TRACK 03 AUDIO
TITLE "Metch ene terf feleghu"
PERFORMER "Seyoum Gebreyes & Wallias Band"
INDEX 00 03:13:40
FILE "03. Seyoum Gebreyes & Wallias Band - Metch ene terf feleghu.flac" WAVE
INDEX 01 00:00:00
TRACK 04 AUDIO
TITLE "Wededku afqerkush"
PERFORMER "Alemayehu Eshete & Shebele's Band"
INDEX 00 02:19:14
FILE "04. Alemayehu Eshete & Shebele's Band - Wededku afqerkush.flac" WAVE
INDEX 01 00:00:00
TRACK 05 AUDIO
TITLE "Antchin yagegnulet"
PERFORMER "Tamrat Ferendji & Sensation Band"
INDEX 00 05:09:64
FILE "05. Tamrat Ferendji & Sensation Band - Antchin yagegnulet.flac" WAVE
INDEX 01 00:00:00
TRACK 06 AUDIO
TITLE "Muziqa Muziqa"
PERFORMER "Seyoum Gebreyes & Wallias Band"
INDEX 00 04:03:35
FILE "06. Seyoum Gebreyes & Wallias Band - Muziqa Muziqa.flac" WAVE
INDEX 01 00:00:00
TRACK 07 AUDIO
TITLE "Atraqegn"
PERFORMER "Bzunesh Beqele & Dahlak Band"
INDEX 00 03:41:15
FILE "07. Bzunesh Beqele & Dahlak Band - Atraqegn.flac" WAVE
INDEX 01 00:00:00
TRACK 08 AUDIO
TITLE "Yemendjar shega"
PERFORMER "Muluqen Mellesse & Dahlak Band"
INDEX 00 02:53:37
FILE "08. Muluqen Mellesse & Dahlak Band - Yemendjar shega.flac" WAVE
INDEX 01 00:00:00
TRACK 09 AUDIO
TITLE "Muziqawi Silt"
PERFORMER "Wallias Band"
INDEX 00 02:31:39
FILE "09. Wallias Band - Muziqawi Silt.flac" WAVE
INDEX 01 00:00:00
TRACK 10 AUDIO
TITLE "Djemeregne"
PERFORMER "Muluqen Mellesse & Dahlak Band"
INDEX 00 03:44:39
FILE "10. Muluqen Mellesse & Dahlak Band - Djemeregne.flac" WAVE
INDEX 01 00:00:00
TRACK 11 AUDIO
TITLE "Feqer aydelem wey"
PERFORMER "Ayalew Mesfin & Black Lion Band"
INDEX 00 07:27:50
FILE "11. Ayalew Mesfin & Black Lion Band - Feqer aydelem wey.flac" WAVE
INDEX 01 00:00:00
TRACK 12 AUDIO
TITLE "Ya djaleleto"
PERFORMER "Tamrat Ferendji & Sensation Band"
INDEX 00 04:06:12
FILE "12. Tamrat Ferendji & Sensation Band - Ya djaleleto.flac" WAVE
INDEX 01 00:00:00
TRACK 13 AUDIO
TITLE "Tegel new"
PERFORMER "Bzunesh Beqele"
INDEX 00 04:30:25
FILE "13. Bzunesh Beqele - Tegel new.flac" WAVE
INDEX 01 00:00:00
TRACK 14 AUDIO
TITLE "Gud aderegetchegn"
PERFORMER "Ayalew Mesfin & Black Lion Band"
INDEX 00 03:29:64
FILE "14. Ayalew Mesfin & Black Lion Band - Gud aderegetchegn.flac" WAVE
INDEX 01 00:00:00
TRACK 15 AUDIO
TITLE "Gedawo"
PERFORMER "Ayalew Mesfin & Black Lion Band"
INDEX 00 03:47:47
FILE "15. Ayalew Mesfin & Black Lion Band - Gedawo.flac" WAVE
INDEX 01 00:00:00
TRACK 16 AUDIO
TITLE "Metche new"
PERFORMER "Asselefetch Ashine & Getenesh Kebret & Army Band"
INDEX 00 04:01:58
FILE "16. Asselefetch Ashine & Getenesh Kebret & Army Band - Metche new.flac" WAVE
INDEX 01 00:00:00
TRACK 17 AUDIO
TITLE "Amlak abet abet"
PERFORMER "Asselefetch Ashine & Getenesh Kebret & Army Band"
INDEX 00 03:31:73
FILE "17. Asselefetch Ashine & Getenesh Kebret & Army Band - Amlak abet abet.flac" WAVE
INDEX 01 00:00:00
04:21
263
Нет комментариев. Ваш будет первым!