Поиск

(African Traditions/African Jazz) Abdullah Ibrahim - Africa - Tears And Laughter - 1979, APE (image+.cue), lossless

(African Traditions/African Jazz) Abdullah Ibrahim - Africa - Tears And Laughter - 1979, APE (image+.cue), lossless
Треклист:
Abdullah Ibrahim - Africa - Tears And Laughter
Жанр: African Traditions/African Jazz
Recording Date: Mar 11, 1979-Mar 12, 1979
Год выпуска диска: 1991
Производитель диска: Enja (Catalog # R2-79622)
Аудио кодек: APE
Тип рипа: image+.cue
Битрейт аудио: lossless
Продолжительность: 40:25
Источник: нонэйм, автор: barin99
Трэклист:
1. Tsakve 1:27
2. The Perfumed Forest Wet With Rain 3:56
3. Ishmael 13:46
4. Did You Hear That Sound? 9:10
5. Liberation Dance (When Tarzan Met the African Freedom Fighter) 4:32
6. Imam 6:06
7. Tsakve 1:03
Музыканты:
Abdullah Ibrahim — Piano, Sax (Soprano), Vocals
Talib Qadir Kibwe — Sax (Alto), Sax (Soprano), Vocals
Greg Brown — Bass
John Betsch — Drums
 
EAC log:
Exact Audio Copy V0.99 prebeta 5 from 4. May 2009
EAC extraction logfile from 9. February 2010, 18:43
Abdullah Ibrahim / Africa - Tears And Laughter
Used drive : TSSTcorpDVD+-RW TS-U633A Adapter: 0 ID: 1
Read mode : Secure
Utilize accurate stream : Yes
Defeat audio cache : Yes
Make use of C2 pointers : No
Read offset correction : 6
Overread into Lead-In and Lead-Out : No
Fill up missing offset samples with silence : Yes
Delete leading and trailing silent blocks : No
Null samples used in CRC calculations : Yes
Used interface : Native Win32 interface for Win NT & 2000
Used output format : Internal WAV Routines
Sample format : 44.100 Hz; 16 Bit; Stereo
TOC of the extracted CD
Track | Start | Length | Start sector | End sector
---------------------------------------------------------
1 | 0:00.50 | 1:32.17 | 50 | 6966
2 | 1:32.67 | 3:59.40 | 6967 | 24931
3 | 5:32.32 | 13:51.33 | 24932 | 87289
4 | 19:23.65 | 9:12.27 | 87290 | 128716
5 | 28:36.17 | 4:34.45 | 128717 | 149311
6 | 33:10.62 | 6:09.38 | 149312 | 177024
7 | 39:20.25 | 1:05.45 | 177025 | 181944
Range status and errors
Selected range
Filename C:\_Arc\EAC_Out\Abdullah Ibrahim - Africa - Tears And Laughter\Abdullah Ibrahim - Africa - Tears And Laughter.wav
Peak level 88.5 %
Range quality 100.0 %
Copy CRC E150BE27
Copy OK
No errors occurred
AccurateRip summary
Track 1 not present in database
Track 2 not present in database
Track 3 not present in database
Track 4 not present in database
Track 5 not present in database
Track 6 not present in database
Track 7 not present in database
None of the tracks are present in the AccurateRip database
End of status report
12:52
550
Нет комментариев. Ваш будет первым!