Поиск

(African Jazz / World Fusion) Oran Etkin - Kelenia - 2009, FLAC (tracks+.cue), lossless

(African Jazz / World Fusion) Oran Etkin - Kelenia - 2009, FLAC (tracks+.cue), lossless
Треклист:
Oran Etkin - Kelenia
Жанр: African Jazz / World Fusion
Год выпуска : 2009
Аудио кодек: FLAC
Тип рипа: tracks+.cue
Битрейт аудио: lossless
Продолжительность: 00:52:28
Рип: hoperinvest - What CD


01. Yekeke (3:01)
02. Nina (6:58)
03. Kelenia (5:29)
04. Not a Waltz (6:22)
05. Nama (4:00)
06. Lacy (7:15)
07. Brink (5:20)
08. New Dwelling (4:27)
09. It Don't Mean a Thing (3:25)
10. Damonzon (4:49)
11. Kelenia Remembered (1:23)

 
XLD
X Lossless Decoder version 20091225 (115.1)
XLD extraction logfile from 2009-12-29 17:35:03 -0600
Oren Etkin / Kelenia
Used drive : MATSHITA DVD-R UJ-857E (revision ZA0E)
Use cdparanoia mode : YES (CDParanoia III 10.2 engine)
Disable audio cache : OK for the drive with cache less than 2750KB
Make use of C2 pointers : NO
Read offset correction : 102
Max retry count : 100
TOC of the extracted CD
Track | Start | Length | Start sector | End sector
---------------------------------------------------------
1 | 00:00:00 | 03:01:19 | 0 | 13593
2 | 03:01:19 | 06:58:23 | 13594 | 44966
3 | 09:59:42 | 05:28:49 | 44967 | 69615
4 | 15:28:16 | 06:22:37 | 69616 | 98302
5 | 21:50:53 | 03:59:39 | 98303 | 116266
6 | 25:50:17 | 07:15:08 | 116267 | 148899
7 | 33:05:25 | 05:19:69 | 148900 | 172893
8 | 38:25:19 | 04:26:54 | 172894 | 192897
9 | 42:51:73 | 03:25:01 | 192898 | 208273
10 | 46:16:74 | 04:48:70 | 208274 | 229943
11 | 51:05:69 | 01:22:57 | 229944 | 236150
All Tracks
Album gain : -4.02 dB
Peak : 0.988678
Track 01
Filename : /Users/Alex/Documents/waffles/Oran Etkin - kelenia/01 - Yekeke.flac
Pre-gap length : 00:02:00
Track gain : -5.75 dB
Peak : 0.988647
CRC32 hash (test run) : C3FE0E22
CRC32 hash : C3FE0E22
CRC32 hash (skip zero) : FEF3069E
AccurateRip signature : 2A3A2ED6
->Track not present in AccurateRip database.
Statistics
Read error : 0
Skipped (treated as error) : 0
Edge jitter error (maybe fixed) : 0
Atom jitter error (maybe fixed) : 0
Drift error (maybe fixed) : 0
Dropped bytes error (maybe fixed) : 0
Duplicated bytes error (maybe fixed) : 0
Inconsistency in error sectors : 0
Track 02
Filename : /Users/Alex/Documents/waffles/Oran Etkin - kelenia/02 - Nina.flac
Track gain : -3.45 dB
Peak : 0.988647
CRC32 hash (test run) : 2847F20A
CRC32 hash : 2847F20A
CRC32 hash (skip zero) : 9BA658CC
AccurateRip signature : E8AF56D7
->Track not present in AccurateRip database.
Statistics
Read error : 0
Skipped (treated as error) : 0
Edge jitter error (maybe fixed) : 0
Atom jitter error (maybe fixed) : 0
Drift error (maybe fixed) : 0
Dropped bytes error (maybe fixed) : 0
Duplicated bytes error (maybe fixed) : 0
Inconsistency in error sectors : 0
Track 03
Filename : /Users/Alex/Documents/waffles/Oran Etkin - kelenia/03 - Kelenia.flac
Track gain : -4.63 dB
Peak : 0.988647
CRC32 hash (test run) : 391C186C
CRC32 hash : 391C186C
CRC32 hash (skip zero) : A1861206
AccurateRip signature : 61E96FEC
->Track not present in AccurateRip database.
Statistics
Read error : 0
Skipped (treated as error) : 0
Edge jitter error (maybe fixed) : 0
Atom jitter error (maybe fixed) : 0
Drift error (maybe fixed) : 0
Dropped bytes error (maybe fixed) : 0
Duplicated bytes error (maybe fixed) : 0
Inconsistency in error sectors : 0
Track 04
Filename : /Users/Alex/Documents/waffles/Oran Etkin - kelenia/04 - Not a Waltz.flac
Pre-gap length : 00:00:38
Track gain : -1.04 dB
Peak : 0.988647
CRC32 hash (test run) : 31E65F00
CRC32 hash : 31E65F00
CRC32 hash (skip zero) : CCDFA43A
AccurateRip signature : 345FE23A
->Track not present in AccurateRip database.
Statistics
Read error : 0
Skipped (treated as error) : 0
Edge jitter error (maybe fixed) : 0
Atom jitter error (maybe fixed) : 0
Drift error (maybe fixed) : 0
Dropped bytes error (maybe fixed) : 0
Duplicated bytes error (maybe fixed) : 0
Inconsistency in error sectors : 0
Track 05
Filename : /Users/Alex/Documents/waffles/Oran Etkin - kelenia/05 - Nama.flac
Pre-gap length : 00:00:28
Track gain : -3.20 dB
Peak : 0.988647
CRC32 hash (test run) : 16E048CE
CRC32 hash : 16E048CE
CRC32 hash (skip zero) : 469E5286
AccurateRip signature : 1F313969
->Track not present in AccurateRip database.
Statistics
Read error : 0
Skipped (treated as error) : 0
Edge jitter error (maybe fixed) : 0
Atom jitter error (maybe fixed) : 0
Drift error (maybe fixed) : 0
Dropped bytes error (maybe fixed) : 0
Duplicated bytes error (maybe fixed) : 0
Inconsistency in error sectors : 0
Track 06
Filename : /Users/Alex/Documents/waffles/Oran Etkin - kelenia/06 - Lacy.flac
Pre-gap length : 00:01:32
Track gain : -2.86 dB
Peak : 0.988647
CRC32 hash (test run) : D9401316
CRC32 hash : D9401316
CRC32 hash (skip zero) : A21125AF
AccurateRip signature : 31F200B0
->Track not present in AccurateRip database.
Statistics
Read error : 0
Skipped (treated as error) : 0
Edge jitter error (maybe fixed) : 0
Atom jitter error (maybe fixed) : 0
Drift error (maybe fixed) : 0
Dropped bytes error (maybe fixed) : 0
Duplicated bytes error (maybe fixed) : 0
Inconsistency in error sectors : 0
Track 07
Filename : /Users/Alex/Documents/waffles/Oran Etkin - kelenia/07 - Brink.flac
Track gain : -4.58 dB
Peak : 0.988678
CRC32 hash (test run) : 8E695A4E
CRC32 hash : 8E695A4E
CRC32 hash (skip zero) : DF1234FB
AccurateRip signature : F169B03F
->Track not present in AccurateRip database.
Statistics
Read error : 0
Skipped (treated as error) : 0
Edge jitter error (maybe fixed) : 0
Atom jitter error (maybe fixed) : 0
Drift error (maybe fixed) : 0
Dropped bytes error (maybe fixed) : 0
Duplicated bytes error (maybe fixed) : 0
Inconsistency in error sectors : 0
Track 08
Filename : /Users/Alex/Documents/waffles/Oran Etkin - kelenia/08 - New Dwelling.flac
Pre-gap length : 00:01:64
Track gain : -2.81 dB
Peak : 0.988678
CRC32 hash (test run) : E826527C
CRC32 hash : E826527C
CRC32 hash (skip zero) : BAE3BFB8
AccurateRip signature : 94BA3EE7
->Track not present in AccurateRip database.
Statistics
Read error : 0
Skipped (treated as error) : 0
Edge jitter error (maybe fixed) : 0
Atom jitter error (maybe fixed) : 0
Drift error (maybe fixed) : 0
Dropped bytes error (maybe fixed) : 0
Duplicated bytes error (maybe fixed) : 0
Inconsistency in error sectors : 0
Track 09
Filename : /Users/Alex/Documents/waffles/Oran Etkin - kelenia/09 - It Don't Mean a Thing.flac
Track gain : -5.64 dB
Peak : 0.988617
CRC32 hash (test run) : 5FC15758
CRC32 hash : 5FC15758
CRC32 hash (skip zero) : F20CC222
AccurateRip signature : 98B49096
->Track not present in AccurateRip database.
Statistics
Read error : 0
Skipped (treated as error) : 0
Edge jitter error (maybe fixed) : 0
Atom jitter error (maybe fixed) : 0
Drift error (maybe fixed) : 0
Dropped bytes error (maybe fixed) : 0
Duplicated bytes error (maybe fixed) : 0
Inconsistency in error sectors : 0
Track 10
Filename : /Users/Alex/Documents/waffles/Oran Etkin - kelenia/10 - Damonzon.flac
Pre-gap length : 00:01:67
Track gain : -3.74 dB
Peak : 0.988647
CRC32 hash (test run) : 5044FA03
CRC32 hash : 5044FA03
CRC32 hash (skip zero) : 698F873F
AccurateRip signature : 09BD86D5
->Track not present in AccurateRip database.
Statistics
Read error : 0
Skipped (treated as error) : 0
Edge jitter error (maybe fixed) : 0
Atom jitter error (maybe fixed) : 0
Drift error (maybe fixed) : 0
Dropped bytes error (maybe fixed) : 0
Duplicated bytes error (maybe fixed) : 0
Inconsistency in error sectors : 0
Track 11
Filename : /Users/Alex/Documents/waffles/Oran Etkin - kelenia/11 - Kelenia Remembered.flac
Track gain : 1.17 dB
Peak : 0.456024
CRC32 hash (test run) : A19B717B
CRC32 hash : A19B717B
CRC32 hash (skip zero) : CA5BE225
AccurateRip signature : 1056DED6
->Track not present in AccurateRip database.
Statistics
Read error : 0
Skipped (treated as error) : 0
Edge jitter error (maybe fixed) : 0
Atom jitter error (maybe fixed) : 0
Drift error (maybe fixed) : 0
Dropped bytes error (maybe fixed) : 0
Duplicated bytes error (maybe fixed) : 0
Inconsistency in error sectors : 0
No errors occurred
End of status report
 
CUE
PERFORMER "Oran Etkin"
TITLE "Kelenia"
REM GENRE "World"
REM DATE 2009
FILE "01 - Yekeke.wav" WAVE
TRACK 01 AUDIO
TITLE "Yekeke"
ISRC US9330902401
INDEX 01 00:00:00
FILE "02 - Nina.wav" WAVE
TRACK 02 AUDIO
TITLE "Nina"
ISRC US9330902402
INDEX 01 00:00:00
FILE "03 - Kelenia.wav" WAVE
TRACK 03 AUDIO
TITLE "Kelenia"
ISRC US9330902403
INDEX 01 00:00:00
TRACK 04 AUDIO
TITLE "Not a Waltz"
ISRC US9330902404
INDEX 00 05:28:11
FILE "04 - Not a Waltz.wav" WAVE
INDEX 01 00:00:00
TRACK 05 AUDIO
TITLE "Nama"
ISRC US9330902405
INDEX 00 06:22:09
FILE "05 - Nama.wav" WAVE
INDEX 01 00:00:00
TRACK 06 AUDIO
TITLE "Lacy"
ISRC US9330902406
INDEX 00 03:58:07
FILE "06 - Lacy.wav" WAVE
INDEX 01 00:00:00
FILE "07 - Brink.wav" WAVE
TRACK 07 AUDIO
TITLE "Brink"
ISRC US9330902407
INDEX 01 00:00:00
TRACK 08 AUDIO
TITLE "New Dwelling"
ISRC US9330902408
INDEX 00 05:18:05
FILE "08 - New Dwelling.wav" WAVE
INDEX 01 00:00:00
FILE "09 - It Don't Mean a Thing.wav" WAVE
TRACK 09 AUDIO
TITLE "It Don't Mean a Thing"
ISRC US9330902409
INDEX 01 00:00:00
TRACK 10 AUDIO
TITLE "Damonzon"
ISRC US9330902410
INDEX 00 03:23:09
FILE "10 - Damonzon.wav" WAVE
INDEX 01 00:00:00
FILE "11 - Kelenia Remembered.wav" WAVE
TRACK 11 AUDIO
TITLE "Kelenia Remembered"
ISRC US9330902411
INDEX 01 00:00:00
 
Audiochecker
Started at: пятница, 01. 01. 2010. - 12:18.01
11 files found
01 -===- C:\Downloads\Music\Джаз\Oran Etkin - Kelenia - 2009\01 - Yekeke.flac
Extracted successfully
Conclusion: This track looks like CDDA with probability 100%
Tempfile successfully deleted.
02 -===- C:\Downloads\Music\Джаз\Oran Etkin - Kelenia - 2009\02 - Nina.flac
Extracted successfully
Conclusion: This track looks like CDDA with probability 100%
Tempfile successfully deleted.
03 -===- C:\Downloads\Music\Джаз\Oran Etkin - Kelenia - 2009\03 - Kelenia.flac
Extracted successfully
Conclusion: This track looks like CDDA with probability 100%
Tempfile successfully deleted.
04 -===- C:\Downloads\Music\Джаз\Oran Etkin - Kelenia - 2009\04 - Not a Waltz.flac
Extracted successfully
Conclusion: This track looks like CDDA with probability 100%
Tempfile successfully deleted.
05 -===- C:\Downloads\Music\Джаз\Oran Etkin - Kelenia - 2009\05 - Nama.flac
Extracted successfully
Conclusion: This track looks like CDDA with probability 100%
Tempfile successfully deleted.
06 -===- C:\Downloads\Music\Джаз\Oran Etkin - Kelenia - 2009\06 - Lacy.flac
Extracted successfully
Conclusion: This track looks like CDDA with probability 100%
Tempfile successfully deleted.
07 -===- C:\Downloads\Music\Джаз\Oran Etkin - Kelenia - 2009\07 - Brink.flac
Extracted successfully
Conclusion: This track looks like CDDA with probability 99%
Tempfile successfully deleted.
08 -===- C:\Downloads\Music\Джаз\Oran Etkin - Kelenia - 2009\08 - New Dwelling.flac
Extracted successfully
Conclusion: This track looks like CDDA with probability 100%
Tempfile successfully deleted.
09 -===- C:\Downloads\Music\Джаз\Oran Etkin - Kelenia - 2009\09 - It Don't Mean a Thing.flac
Extracted successfully
Conclusion: This track looks like CDDA with probability 100%
Tempfile successfully deleted.
10 -===- C:\Downloads\Music\Джаз\Oran Etkin - Kelenia - 2009\10 - Damonzon.flac
Extracted successfully
Conclusion: This track looks like CDDA with probability 100%
Tempfile successfully deleted.
11 -===- C:\Downloads\Music\Джаз\Oran Etkin - Kelenia - 2009\11 - Kelenia Remembered.flac
Extracted successfully
Conclusion: This track looks like CDDA with probability 100%
Tempfile successfully deleted.
Finished at: пятница, 01. 01. 2010. - 12:27.14 (operation time: 0:09.12)

Oran Etkin (clarinet, bass clarinet, tenor saxophone);
Makane Kouyate (vocals, djembe, percussion);
Abdoulaye Diabatй (vocals);
Lionel Loueke (guitar);
Sara Caswell (violin);
Jesse Marino (cello);
Balla Kouyate (balafon);
Joe Sanders (bass instrument);
John Benнtez (bass guitar);
Joh Camara (percussion).
Download available for power users only.
10:40
218
Нет комментариев. Ваш будет первым!