Поиск

(African Jazz, Post-Bop) Dollar Brand (Abdullah Ibrahim) - African Space Program - 1973 (1991), FLAC (tracks+.cue), lossless

(African Jazz, Post-Bop) Dollar Brand (Abdullah Ibrahim) - African Space Program - 1973 (1991), FLAC (tracks+.cue), lossless
Dollar Brand (Abdullah Ibrahim) - African Space Program
Жанр: African Jazz, Post-Bop
Страна-производитель диска: Австрия
Год издания: 1973 (1991)
Издатель (лейбл): Enja
Номер по каталогу: 2032-2
Страна: США
Аудиокодек: FLAC (*.flac)
Тип рипа: tracks+.cue
Битрейт аудио: lossless
Продолжительность: 43:08
Источник (релизер): MolluskGoneBad (what)
Наличие сканов в содержимом раздачи: сетевые
Треклист:
01. Tintiyana, First Part (Brand) - 6:58
02. Tintiyana, Second Part (Brand) - 12:45
03. Jabulani-Easter Joy (Brand) - 23:25
Состав:
Dollar Brand - piano
Cecil Bridgewater, Enrico Rava, Charles Sullivan - trumpet
Kiani Zawadi - trombone
Sonny Fortune, Carlos Ward - flute, alto saxophone
Roland Alexander - harmonica, tenor saxophone
John Stubblefield - tenor saxophone
Hamiet Bluiett - baritone saxophone
Cecil McBee - bass
Roy Brooks - percussion
Recorded at Studio WARP, New York on November 7, 1973.
 
Лог создания рипа
Exact Audio Copy V1.0 beta 2 from 29. April 2011
EAC extraction logfile from 1. September 2011, 18:07
Dollar Brand / African Space Program
Used drive : TSSTcorpCDDVDW SH-S223Q Adapter: 0 ID: 1
Read mode : Secure
Utilize accurate stream : Yes
Defeat audio cache : Yes
Make use of C2 pointers : No
Read offset correction : 6
Overread into Lead-In and Lead-Out : No
Fill up missing offset samples with silence : Yes
Delete leading and trailing silent blocks : No
Null samples used in CRC calculations : Yes
Used interface : Native Win32 interface for Win NT & 2000
Gap handling : Appended to previous track
Used output format : User Defined Encoder
Selected bitrate : 1024 kBit/s
Quality : High
Add ID3 tag : No
Command line compressor : C:\Program Files (x86)\Exact Audio Copy\Flac\flac.exe
Additional command line options : -8 -V -T "ARTIST=%artist%" -T "TITLE=%title%" -T "ALBUM=%albumtitle%" -T "DATE=%year%" -T "TRACKNUMBER=%tracknr%" -T "GENRE=%genre%" -T "PERFORMER=%albuminterpret%" -T "COMPOSER=%composer%" %haslyrics%--tag-from-file=LYRICS
TOC of the extracted CD
Track | Start | Length | Start sector | End sector
---------------------------------------------------------
1 | 0:00.00 | 6:58.27 | 0 | 31376
2 | 6:58.27 | 12:44.68 | 31377 | 88744
3 | 19:43.20 | 23:25.25 | 88745 | 194144
Track 1
Filename S:\EACRips\Dollar Brand - African Space Program\01 Tintiyana, Pt. 1.wav
Pre-gap length 0:00:02.00
Peak level 79.6 %
Extraction speed 2.2 X
Track quality 100.0 %
Test CRC D08F81B7
Copy CRC D08F81B7
Accurately ripped (confidence 5) [F44BC494] (AR v1)
Copy OK
Track 2
Filename S:\EACRips\Dollar Brand - African Space Program\02 Tintiyana, Pt. 2.wav
Pre-gap length 0:00:02.37
Peak level 98.5 %
Extraction speed 2.2 X
Track quality 99.9 %
Test CRC F6D4EE69
Copy CRC F6D4EE69
Accurately ripped (confidence 5) [692C63A2] (AR v1)
Copy OK
Track 3
Filename S:\EACRips\Dollar Brand - African Space Program\03 Jabulani (Easter Joy).wav
Pre-gap length 0:00:04.00
Peak level 86.2 %
Extraction speed 2.3 X
Track quality 99.9 %
Test CRC E498C88C
Copy CRC E498C88C
Accurately ripped (confidence 5) [8EA98D2A] (AR v1)
Copy OK
All tracks accurately ripped
No errors occurred
End of status report
---- CUETools DB Plugin V2.1.2
[CTDB TOCID: QcIeIJdcKSSKeRlsAeVkexnHgUk-] disk not present in database, Submit result: QcIeIJdcKSSKeRlsAeVkexnHgUk- has been uploaded
==== Log checksum CAF0523F3BE307523DE5207E17B7D9C2F6A0B207177BB70E8362105220E145BF ====
 
Содержание индексной карты (.CUE)
REM GENRE Jazz
REM DATE 1973
REM DISCID 170A1C03
REM COMMENT "ExactAudioCopy v1.0b2"
PERFORMER "Dollar Brand"
TITLE "African Space Program"
FILE "01 - Tintiyana, First Part.wav" WAVE
TRACK 01 AUDIO
TITLE "Tintiyana, First Part"
PERFORMER "Dollar Brand"
INDEX 01 00:00:00
TRACK 02 AUDIO
TITLE "Tintiyana, Second Part"
PERFORMER "Dollar Brand"
INDEX 00 06:55:65
FILE "02 - Tintiyana, Second Part.wav" WAVE
INDEX 01 00:00:00
TRACK 03 AUDIO
TITLE "Jabulani-Easter Joy"
PERFORMER "Dollar Brand"
INDEX 00 12:40:68
FILE "03 - Jabulani-Easter Joy.wav" WAVE
INDEX 01 00:00:00
 
Отчет CUETools
[CUETools log; Date: 11.03.2013 2:18:17; Version: 2.1.4]
[CTDB TOCID: QcIeIJdcKSSKeRlsAeVkexnHgUk-] found.
Track | CTDB Status
1 | (3/3) Accurately ripped
2 | (3/3) Accurately ripped
3 | (3/3) Accurately ripped
[AccurateRip ID: 0004cb9b-0010dea2-170a1c03] found.
Track [ CRC | V2 ] Status
01 [f44bc494|728a90db] (5+0/7) Accurately ripped
02 [692c63a2|ef378dd3] (5+0/7) Accurately ripped
03 [8ea98d2a|c53226c2] (5+0/7) Accurately ripped
Offsetted by 679:
01 [1c6a4dbb] (2/7) Accurately ripped
02 [4cad72a5] (2/7) Accurately ripped
03 [5dc478b0] (2/7) Accurately ripped
Track Peak [ CRC32 ] [W/O NULL] [ LOG ]
-- 98,5 [FEA55362] [D9CAB28C]
01 79,6 [D08F81B7] [73214361] CRC32
02 98,5 [F6D4EE69] [A259EA38] CRC32
03 86,2 [E498C88C] [4B8F1906] CRC32
 
Review by Brian Olewnick
Still known as Dollar Brand at the time of this recording, Abdullah Ibrahim had his first encounter with a large ensemble on African Space Program, and the results are quite successful. Despite a muddy sound quality, this is music built on infectious themes and played with verve by a fine cast of instrumentalists. The first part of "Tintiyana," entirely written, is redolent of Ellington and Mingus, all churning low tones and percussion. When the second portion begins, the mood turns celebratory with a striding, gospel-imbued theme supporting heroic solos from all involved. Several of the musicians on hand were generally involved with the avant-garde end of the jazz spectrum at the time, and their playing is full of bite and a risk-taking nature that greatly enlivens the proceedings. The companion piece, "Jabulani-Easter Joy," is similarly structured, though here the theme bears a striking, if accidental, resemblance to the central melody of "Jesus Christ, Superstar" (!). The soloing is perhaps even more rambunctious than on "Tintiyana," and brings the album to a quite rousing conclusion. Among all the fine work, special mention should be made of the rhythm team of Cecil McBee and Roy Brooks who, along with the leader's relentless and driving accompaniment, pace the ensemble beautifully and add their own superb solo statements.
10:47
660
Нет комментариев. Ваш будет первым!