Поиск

(African Jazz, Post-Bop) Abdullah Ibrahim - African Sun - 1988 (1998), FLAC (tracks+.cue), lossless

(African Jazz, Post-Bop) Abdullah Ibrahim - African Sun - 1988 (1998), FLAC (tracks+.cue), lossless
Abdullah Ibrahim - African Sun
Жанр: African Jazz, Post-Bop
Страна-производитель диска: Великобритания
Год издания: 1988 (1998)
Издатель (лейбл): Kaz Records/Camden/BMG
Номер по каталогу: CDN 1008
Страна: США
Аудиокодек: FLAC (*.flac)
Тип рипа: tracks+.cue
Битрейт аудио: lossless
Продолжительность: 76:13
Источник (релизер): fibonacci
Наличие сканов в содержимом раздачи: да
Треклист:
01. African Sun (Ibrahim) - 6:14
02. Bra Joe from Kilimanjaro (Ibrahim) - 6:14
03. Rolling (Ibrahim) - 7:28
04. Memories of You (Blake-Razaf) - 4:50
05. Sathima (Ibrahim) - 11:26
06. African Herbs (Ibrahim) - 10:40
07. Nobody Knows the Trouble I've Seen (Trad.) - 6:58
08. Blues for B (Ibrahim) - 7:41
09. Gwidza (Ibrahim) - 4:40
10. Kamalie (Ibrahim) - 10:02
 
Лог создания рипа
X Lossless Decoder version 20080926 (93.3)
XLD extraction logfile from 2009-02-07 20:12:22 +0100
Abdullah Ibrahim / African Sun
Used drive : OPTIARC DVD RW AD-5630A (revision 1AHM)
Use cdparanoia mode : YES (CDParanoia III 10.2 engine)
Disable audio cache : OK for the drive with cache less than 2750KB
Make use of C2 pointers : NO
Read offset correction : 48
Max retry count : 100
TOC of the extracted CD
Track | Start | Length | Start sector | End sector
---------------------------------------------------------
1 | 00:00:00 | 06:13:47 | 0 | 28021
2 | 06:13:47 | 06:14:05 | 28022 | 56076
3 | 12:27:52 | 07:28:25 | 56077 | 89701
4 | 19:56:02 | 04:50:03 | 89702 | 111454
5 | 24:46:05 | 11:26:27 | 111455 | 162931
6 | 36:12:32 | 10:40:25 | 162932 | 210956
7 | 46:52:57 | 06:58:18 | 210957 | 242324
8 | 53:51:00 | 07:40:40 | 242325 | 276864
9 | 61:31:40 | 04:40:37 | 276865 | 297901
10 | 66:12:02 | 10:01:55 | 297902 | 343031
List of alternate offset correction values
# | Absolute | Relative | Confidence
------------------------------------------
1 | -631 | -679 | 2
All Tracks
Album gain : -4.41 dB
Peak : 0.989716
Track 01
Filename : /Volumes/8-Jazz + altro/Flac per Pedro's/Abdullah Ibrahim - African Sun (2008) [FLAC]/01 - African Sun.flac
Track gain : -4.73 dB
Peak : 0.939606
CRC32 hash (test run) : F846BEEE
CRC32 hash : F846BEEE
CRC32 hash (skip zero) : 9ABAB4E9
AccurateRip signature : 531621C5
->Accurately ripped! (confidence 2)
Statistics
Read error : 0
Skipped (treated as error) : 0
Edge jitter error (maybe fixed) : 0
Atom jitter error (maybe fixed) : 0
Drift error (maybe fixed) : 0
Dropped bytes error (maybe fixed) : 0
Duplicated bytes error (maybe fixed) : 0
Inconsistency in error sectors : 0
Track 02
Filename : /Volumes/8-Jazz + altro/Flac per Pedro's/Abdullah Ibrahim - African Sun (2008) [FLAC]/02 - Bra Joe From Kilimanjaro.flac
Track gain : -5.55 dB
Peak : 0.847656
CRC32 hash (test run) : 499A85AB
CRC32 hash : 499A85AB
CRC32 hash (skip zero) : 9F8AC069
AccurateRip signature : E4B77D65
->Accurately ripped! (confidence 2)
Statistics
Read error : 0
Skipped (treated as error) : 0
Edge jitter error (maybe fixed) : 0
Atom jitter error (maybe fixed) : 0
Drift error (maybe fixed) : 0
Dropped bytes error (maybe fixed) : 0
Duplicated bytes error (maybe fixed) : 0
Inconsistency in error sectors : 0
Track 03
Filename : /Volumes/8-Jazz + altro/Flac per Pedro's/Abdullah Ibrahim - African Sun (2008) [FLAC]/03 - Rolling.flac
Track gain : -6.38 dB
Peak : 0.941376
CRC32 hash (test run) : 6A5C4251
CRC32 hash : 6A5C4251
CRC32 hash (skip zero) : 5F5799A2
AccurateRip signature : 81448D36
->Accurately ripped! (confidence 2)
Statistics
Read error : 0
Skipped (treated as error) : 0
Edge jitter error (maybe fixed) : 1
Atom jitter error (maybe fixed) : 1
Drift error (maybe fixed) : 0
Dropped bytes error (maybe fixed) : 0
Duplicated bytes error (maybe fixed) : 0
Inconsistency in error sectors : 0
Track 04
Filename : /Volumes/8-Jazz + altro/Flac per Pedro's/Abdullah Ibrahim - African Sun (2008) [FLAC]/04 - Memories Of You.flac
Track gain : -6.59 dB
Peak : 0.555573
CRC32 hash (test run) : 2C8021EA
CRC32 hash : 2C8021EA
CRC32 hash (skip zero) : 97012086
AccurateRip signature : 0E402FFE
->Accurately ripped! (confidence 2)
Statistics
Read error : 0
Skipped (treated as error) : 0
Edge jitter error (maybe fixed) : 0
Atom jitter error (maybe fixed) : 0
Drift error (maybe fixed) : 0
Dropped bytes error (maybe fixed) : 0
Duplicated bytes error (maybe fixed) : 0
Inconsistency in error sectors : 0
Track 05
Filename : /Volumes/8-Jazz + altro/Flac per Pedro's/Abdullah Ibrahim - African Sun (2008) [FLAC]/05 - Sathima.flac
Track gain : -3.47 dB
Peak : 0.989716
CRC32 hash (test run) : 7F749774
CRC32 hash : 7F749774
CRC32 hash (skip zero) : 1AA11E31
AccurateRip signature : F6917458
->Accurately ripped! (confidence 3)
Statistics
Read error : 0
Skipped (treated as error) : 0
Edge jitter error (maybe fixed) : 0
Atom jitter error (maybe fixed) : 0
Drift error (maybe fixed) : 0
Dropped bytes error (maybe fixed) : 0
Duplicated bytes error (maybe fixed) : 0
Inconsistency in error sectors : 0
Track 06
Filename : /Volumes/8-Jazz + altro/Flac per Pedro's/Abdullah Ibrahim - African Sun (2008) [FLAC]/06 - African Herbs.flac
Track gain : -3.38 dB
Peak : 0.760925
CRC32 hash (test run) : 00E3C508
CRC32 hash : 00E3C508
CRC32 hash (skip zero) : 0A03BDD4
AccurateRip signature : 9DEF0136
->Accurately ripped! (confidence 3)
Statistics
Read error : 0
Skipped (treated as error) : 0
Edge jitter error (maybe fixed) : 0
Atom jitter error (maybe fixed) : 0
Drift error (maybe fixed) : 0
Dropped bytes error (maybe fixed) : 0
Duplicated bytes error (maybe fixed) : 0
Inconsistency in error sectors : 0
Track 07
Filename : /Volumes/8-Jazz + altro/Flac per Pedro's/Abdullah Ibrahim - African Sun (2008) [FLAC]/07 - Nobody Knows The Trouble I'Ve Seen.flac
Track gain : -3.03 dB
Peak : 0.817596
CRC32 hash (test run) : A4F7F792
CRC32 hash : A4F7F792
CRC32 hash (skip zero) : BC036111
AccurateRip signature : 0259B88B
->Accurately ripped! (confidence 3)
Statistics
Read error : 0
Skipped (treated as error) : 0
Edge jitter error (maybe fixed) : 0
Atom jitter error (maybe fixed) : 4
Drift error (maybe fixed) : 0
Dropped bytes error (maybe fixed) : 0
Duplicated bytes error (maybe fixed) : 0
Inconsistency in error sectors : 0
Track 08
Filename : /Volumes/8-Jazz + altro/Flac per Pedro's/Abdullah Ibrahim - African Sun (2008) [FLAC]/08 - Blues For B.flac
Track gain : -3.26 dB
Peak : 0.884949
CRC32 hash (test run) : 0EE9DDA7
CRC32 hash : 0EE9DDA7
CRC32 hash (skip zero) : 46EF2712
AccurateRip signature : 4D29E3D0
->Accurately ripped! (confidence 3)
Statistics
Read error : 0
Skipped (treated as error) : 0
Edge jitter error (maybe fixed) : 0
Atom jitter error (maybe fixed) : 0
Drift error (maybe fixed) : 0
Dropped bytes error (maybe fixed) : 0
Duplicated bytes error (maybe fixed) : 0
Inconsistency in error sectors : 0
Track 09
Filename : /Volumes/8-Jazz + altro/Flac per Pedro's/Abdullah Ibrahim - African Sun (2008) [FLAC]/09 - Gwidza.flac
Track gain : -2.02 dB
Peak : 0.955566
CRC32 hash (test run) : 9C3AD721
CRC32 hash : 9C3AD721
CRC32 hash (skip zero) : 0308903B
AccurateRip signature : DA60BA0A
->Accurately ripped! (confidence 3)
Statistics
Read error : 0
Skipped (treated as error) : 0
Edge jitter error (maybe fixed) : 0
Atom jitter error (maybe fixed) : 0
Drift error (maybe fixed) : 0
Dropped bytes error (maybe fixed) : 0
Duplicated bytes error (maybe fixed) : 0
Inconsistency in error sectors : 0
Track 10
Filename : /Volumes/8-Jazz + altro/Flac per Pedro's/Abdullah Ibrahim - African Sun (2008) [FLAC]/10 - Kamalie.flac
Track gain : -5.02 dB
Peak : 0.805939
CRC32 hash (test run) : 8DC38721
CRC32 hash : 8DC38721
CRC32 hash (skip zero) : 7B8100D3
AccurateRip signature : 23D68EDF
->Accurately ripped! (confidence 3)
Statistics
Read error : 0
Skipped (treated as error) : 0
Edge jitter error (maybe fixed) : 0
Atom jitter error (maybe fixed) : 8
Drift error (maybe fixed) : 0
Dropped bytes error (maybe fixed) : 0
Duplicated bytes error (maybe fixed) : 0
Inconsistency in error sectors : 0
No errors occurred
End of status report
 
Содержание индексной карты (.CUE)
REM GENRE Jazz
REM DATE 1988
PERFORMER "Abdullah Ibrahim"
TITLE "African Sun"
FILE "01 - African Sun.wav" WAVE
TRACK 01 AUDIO
TITLE "African Sun"
PERFORMER "Abdullah Ibrahim"
INDEX 01 00:00:00
TRACK 02 AUDIO
TITLE "Bra Joe from Kilimanjaro"
PERFORMER "Abdullah Ibrahim"
INDEX 00 06:11:00
FILE "02 - Bra Joe from Kilimanjaro.wav" WAVE
INDEX 01 00:00:00
TRACK 03 AUDIO
TITLE "Rolling"
PERFORMER "Abdullah Ibrahim"
INDEX 00 06:11:15
FILE "03 - Rolling.wav" WAVE
INDEX 01 00:00:00
TRACK 04 AUDIO
TITLE "Memories of You"
PERFORMER "Abdullah Ibrahim"
INDEX 00 07:24:70
FILE "04 - Memories of You.wav" WAVE
INDEX 01 00:00:00
TRACK 05 AUDIO
TITLE "Sathima"
PERFORMER "Abdullah Ibrahim"
INDEX 00 04:47:05
FILE "05 - Sathima.wav" WAVE
INDEX 01 00:00:00
TRACK 06 AUDIO
TITLE "African Herbs"
PERFORMER "Abdullah Ibrahim"
INDEX 00 11:23:40
FILE "06 - African Herbs.wav" WAVE
INDEX 01 00:00:00
TRACK 07 AUDIO
TITLE "Nobody Knows the Trouble I've Seen"
PERFORMER "Abdullah Ibrahim"
INDEX 00 10:35:63
FILE "07 - Nobody Knows the Trouble I've Seen.wav" WAVE
INDEX 01 00:00:00
TRACK 08 AUDIO
TITLE "Blues for B"
PERFORMER "Abdullah Ibrahim"
INDEX 00 06:55:13
FILE "08 - Blues for B.wav" WAVE
INDEX 01 00:00:00
TRACK 09 AUDIO
TITLE "Gwidza"
PERFORMER "Abdullah Ibrahim"
INDEX 00 07:38:20
FILE "09 - Gwidza.wav" WAVE
INDEX 01 00:00:00
TRACK 10 AUDIO
TITLE "Kamalie"
PERFORMER "Abdullah Ibrahim"
INDEX 00 04:37:70
FILE "10 - Kamalie.wav" WAVE
INDEX 01 00:00:00
 
Отчет CUETools
[CUETools log; Date: 10.03.2013 23:08:27; Version: 2.1.4]
[CTDB TOCID: 8XkNKROkPOfvuQstV3Vt7BC.VLc-] found.
Track | CTDB Status
1 | (1/1) Accurately ripped
2 | (1/1) Accurately ripped
3 | (1/1) Accurately ripped
4 | (1/1) Accurately ripped
5 | (1/1) Accurately ripped
6 | (1/1) Accurately ripped
7 | (1/1) Accurately ripped
8 | (1/1) Accurately ripped
9 | (1/1) Accurately ripped
10 | (1/1) Accurately ripped
[AccurateRip ID: 001bc285-00e17c3f-a111dd0a] found.
Track [ CRC | V2 ] Status
01 [531621c5|5950e881] (06+00/14) Accurately ripped
02 [e4b77d65|8cf15404] (06+00/14) Accurately ripped
03 [81448d36|93ac0bfe] (06+00/14) Accurately ripped
04 [0e402ffe|f35862da] (06+00/14) Accurately ripped
05 [f6917458|ef0f364b] (06+00/14) Accurately ripped
06 [9def0136|aa1b3209] (06+00/13) Accurately ripped
07 [0259b88b|acf9e140] (06+00/14) Accurately ripped
08 [4d29e3d0|5450b5b9] (06+00/14) Accurately ripped
09 [da60ba0a|2e613e64] (06+00/14) Accurately ripped
10 [23d68edf|b70cc293] (05+00/13) Accurately ripped
Offsetted by -679:
01 [6443fc90] (06/14) Accurately ripped
02 [089e805f] (06/14) Accurately ripped
03 [22c6586b] (06/14) Accurately ripped
04 [52b0ea92] (06/14) Accurately ripped
05 [19073425] (06/14) Accurately ripped
06 [ecd99904] (05/13) Accurately ripped
07 [a4f9b31c] (06/14) Accurately ripped
08 [73d35eeb] (06/14) Accurately ripped
09 [f56e7ba1] (06/14) Accurately ripped
10 [0257ab4d] (06/13) Accurately ripped
Offsetted by -664:
01 [041f27fd] (02/14) Accurately ripped
02 [e4c33f75] (02/14) Accurately ripped
03 [d79276fe] (02/14) Accurately ripped
04 [e5ba1d1e] (02/14) Accurately ripped
05 [33ca29e0] (02/14) Accurately ripped
06 [6d8eaa66] (02/13) Accurately ripped
07 [fe820ab3] (02/14) Accurately ripped
08 [6f940e88] (02/14) Accurately ripped
09 [fc5fda22] (02/14) Accurately ripped
10 [9d49210f] (02/13) Accurately ripped
Track Peak [ CRC32 ] [W/O NULL]
-- 98,9 [4B090311] [B2062759]
01 93,9 [F846BEEE] [9ABAB4E9]
02 84,7 [499A85AB] [9F8AC069]
03 94,1 [6A5C4251] [5F5799A2]
04 55,5 [2C8021EA] [97012086]
05 98,9 [7F749774] [1AA11E31]
06 76,0 [00E3C508] [0A03BDD4]
07 81,7 [A4F7F792] [BC036111]
08 88,4 [0EE9DDA7] [46EF2712]
09 95,5 [9C3AD721] [0308903B]
10 80,5 [8DC38721] [7B8100D3]
 
Review by Alfie Cooke
This is one of the best of the 'Africa' sessions recordings by Abdullah Ibrahim/Dollar Brand. Eaily on a par with the fabulous Blues for a Hip King this album features some truly wonderful compositions that have the Mannenberg feel that was at the heart of Ibrahim's playing (the title track, and 'Rollin' stand out) and some inspired playing from his sidemen.
The real gem on this is Kippie Moeketsi, one of South Africa's lost treasures, who plays a glorious burning solo on the title track that makes the hair stand up on my neck each time I hear it.
There is nothing on this album that disappoints, and even though the liner notes are spartan (I've never been able to find accurate recording dates on any releases of this material, including the original vinyl), you do know who plays on what. This is lively, loveable music. Wonderful South African Jazz!
 
Состав
Abdullah Ibrahim - piano
Barney Rachabane - alto saxophone (#5,7), flute (#7)
Kippie Moeketsi (#1-4), Robbie Jansen (#8,9) - alto saxophone
Basil Coetzee (#5,6,8-10), Duke Makasi (#5), Arthur Jacobs (#9) - tenor saxophone
Dennis Mpale - trumpet (#5)
Victor Ntomi (#1-4,7), Sipho Gumede (#5), Basil Moses (#6,10), Paul Michaels (#8), Lionel Beukes (#9) - bass
Nelson Magwaza (#1-4), Peter Morake (#5), Gilbert Matthews (#6,10), Timmy Kewbulana (#7), Monty Webber (#8), Nazier Kapdi (#9) - drums
10:44
690
Нет комментариев. Ваш будет первым!