Поиск

(african jazz) Hugh Masekela - The Promise of a Future - 1968, FLAC (image+.cue), lossless

Треклист:
Hugh Masekela - The Promise of a Future
Жанр: african jazz
Год выпуска диска: 1968
Производитель диска: South Africa
Аудио кодек: FLAC
Тип рипа: image+.cue
Битрейт аудио: lossless
Продолжительность: 30,38
Трэклист:
1. Ain't No Mountain High Enough 1:59
2. Madonna 3:16
3. No Face, No Name, No Number 3:31
4. Almost Seedless 3:41
5. Stop 2:38
6. Grazing in the Grass 2:41
7. Vuca 3:43
8. Bajabula Bonke (The Healing Song) 6:32
9. There Are Seeds to Sow 2:32
Доп. информация:
 
EAC Log
Exact Audio Copy V0.99 prebeta 4 from 23. January 2008
EAC extraction logfile from 21. July 2009, 17:47
Hugh Masekela / The Promise of a Future
Used drive : _NEC DVD_RW ND-3500AG Adapter: 0 ID: 0
Read mode : Secure
Utilize accurate stream : Yes
Defeat audio cache : Yes
Make use of C2 pointers : No
Read offset correction : 48
Overread into Lead-In and Lead-Out : No
Fill up missing offset samples with silence : Yes
Delete leading and trailing silent blocks : No
Null samples used in CRC calculations : Yes
Used interface : Native Win32 interface for Win NT & 2000
Used output format : User Defined Encoder
Selected bitrate : 768 kBit/s
Quality : High
Add ID3 tag : No
Command line compressor : C:\Program Files\Exact Audio Copy\FLAC\FLAC.EXE
Additional command line options : -6 -V -T "ARTIST=%a" -T "TITLE=%t" -T "ALBUM=%g" -T "DATE=%y" -T "TRACKNUMBER=%n" -T "GENRE=%m" -T "COMMENT=%e" %s -o %d
TOC of the extracted CD
Track | Start | Length | Start sector | End sector
---------------------------------------------------------
1 | 0:00.37 | 1:59.70 | 37 | 9031
2 | 2:00.32 | 3:16.68 | 9032 | 23799
3 | 5:17.25 | 3:31.40 | 23800 | 39664
4 | 8:48.65 | 3:41.42 | 39665 | 56281
5 | 12:30.32 | 2:37.73 | 56282 | 68129
6 | 15:08.30 | 2:41.55 | 68130 | 80259
7 | 17:50.10 | 3:43.45 | 80260 | 97029
8 | 21:33.55 | 6:32.00 | 97030 | 126429
9 | 28:05.55 | 2:32.00 | 126430 | 137829
Range status and errors
Selected range
Filename J:\eMusic\Rip\Hugh Masekela - The Promise of a Future.wav
Peak level 91.4 %
Range quality 100.0 %
Test CRC E4290BCE
Copy CRC E4290BCE
Copy OK
No errors occurred
AccurateRip summary
Track 1 accurately ripped (confidence 1) [1AD294A0]
Track 2 accurately ripped (confidence 1) [CFC73E58]
Track 3 accurately ripped (confidence 1) [D21595F5]
Track 4 accurately ripped (confidence 1) [2EE21A43]
Track 5 accurately ripped (confidence 1) [9FD195D5]
Track 6 accurately ripped (confidence 1) [CCE6763E]
Track 7 accurately ripped (confidence 1) [5F9786D3]
Track 8 accurately ripped (confidence 1) [F86EBE8F]
Track 9 accurately ripped (confidence 1) [2647BEB6]
All tracks accurately ripped
End of status report
 
auCDtect
-----------------------
DON'T MODIFY THIS FILE
-----------------------
PERFORMER: auCDtect Task Manager, ver. 1.0.0 Stable build 1.0.0.0
Copyright (c) 2008, 2009 y-soft. All rights reserved
http://y-soft.110mb.com
ANALYZER: auCDtect: CD records authenticity detector, version 0.8.2
Copyright (c) 2004 Oleg Berngardt. All rights reserved.
Copyright (c) 2004 Alexander Djourik. All rights reserved.
FILE: Hugh Masekela - The Promise of a Future.flac
Size: 185579283 Hash: 34B083D897051D8E658264FFDBAD045B Accuracy: -m0
Conclusion: CDDA 100%
Signature: 9B5DD6394280603E7D6B0EF13ECC2DC7460C67D6
 
Personnel
Hugh Masekela (Trumpet)
Al Abreu (Tenor and Soprano Saxophone)
William Henderson (Piano)
Chuck Carter (Drums)
Henry Franklin (Double Bass)
Bruce Langhorne (Guitar) - 9
Рип из другого ресурса.Все спасибо into09
 
И ещё - обратите внимание,пожалуйста
Прошу обратить внимание на то, что весь материал, представленный выше, предназначен исключительно для ознакомления! Приобретайте, пожалуйста, легальные диски, которые вне всякого сомнения станут достойным украшением вашей коллекции! В соответствие с ФЗ "Об авторском праве и смежных правах", Вы должны удалить все вышеозначенные трэки со своего жесткого диска и иных носителей сразу после ознакомления.
По всем вопросам пишите личное сообщение пользователю M0p94ok.
08:45
349
Нет комментариев. Ваш будет первым!