Поиск

(African Jazz, Brass Band) [CD] The Brazz Brothers - Ngoma - 1999, FLAC (image+.cue), lossless

(African Jazz, Brass Band) [CD] The Brazz Brothers - Ngoma - 1999, FLAC (image+.cue), lossless
Треклист:
The Brazz Brothers / Ngoma
Жанр: African Jazz, Brass Band
Носитель: CD
Страна-производитель диска (релиза): Norway
Год издания: 1999
Издатель (лейбл): BrazzRecords
Номер по каталогу: BBRCD 3002
Аудиокодек: FLAC (*.flac)
Тип рипа: image+.cue
Битрейт аудио: lossless
Продолжительность: 46:42
Источник (релизер): gssmg7
Наличие сканов в содержимом раздачи: да
Треклист:
01. Zawose - 6:58 (Helge Førde)
02. Ejala - 6:17 (Jan Magne Førde)
03. Kongolela - 3:59 (Jan Magne Førde)
04. Hey, Hey Beautiful Girl - 2:41 (Joseph Shabalala)
05. Masaai - 6:00 (trad./ Jan Magne Førde)
06. Tintiyana - 4:36 (Abdullah Ibrahim/ H. Førde)
07. African Marcetplace - 4:07 (Abdullah Ibrahim/ H. Førde)
08. Maraba Blue - 4:08 (Abdullah Ibrahim/ H. Førde)
09. Chisa - 4:19 (Abdullah Ibrahim/ H. Førde)
10. My Kind of Jazz - 2:58 (Tebogo Lerole/ H. Førde)
 
Лог создания рипа
Exact Audio Copy V1.0 beta 2 from 29. April 2011
EAC extraction logfile from 21. February 2016, 12:45
The Brazz Brothers / Ngoma
Used drive : Optiarc DVD RW AD-5280S Adapter: 1 ID: 1
Read mode : Secure
Utilize accurate stream : Yes
Defeat audio cache : Yes
Make use of C2 pointers : No
Read offset correction : 48
Overread into Lead-In and Lead-Out : No
Fill up missing offset samples with silence : Yes
Delete leading and trailing silent blocks : No
Null samples used in CRC calculations : Yes
Used interface : Installed external ASPI interface
Used output format : User Defined Encoder
Selected bitrate : 128 kBit/s
Quality : High
Add ID3 tag : No
Command line compressor : C:\Program Files\FLAC\flac.exe
Additional command line options : -V -8 -T "Genre=%genre%" -T "Artist=%artist%" -T "Title=%title%" -T "Album=%albumtitle%" -T "Date=%year%" -T "Tracknumber=%tracknr%" -T "Comment=%comment%" %source%
TOC of the extracted CD
Track | Start | Length | Start sector | End sector
---------------------------------------------------------
1 | 0:00.00 | 7:05.27 | 0 | 31901
2 | 7:05.27 | 6:20.63 | 31902 | 60464
3 | 13:26.15 | 4:03.10 | 60465 | 78699
4 | 17:29.25 | 2:46.17 | 78700 | 91166
5 | 20:15.42 | 6:01.40 | 91167 | 118281
6 | 26:17.07 | 4:41.50 | 118282 | 139406
7 | 30:58.57 | 4:14.38 | 139407 | 158494
8 | 35:13.20 | 4:10.35 | 158495 | 177279
9 | 39:23.55 | 4:20.57 | 177280 | 196836
10 | 43:44.37 | 2:57.40 | 196837 | 210151
Range status and errors
Selected range
Filename C:\The Brazz Brothers (1999) - Ngoma\The Brazz Brothers (1999) - Ngoma.wav
Peak level 100.0 %
Extraction speed 3.9 X
Range quality 100.0 %
Test CRC BEF93593
Copy CRC BEF93593
Copy OK
No errors occurred
AccurateRip summary
Track 1 accurately ripped (confidence 3) [DFE7DC75] (AR v2)
Track 2 accurately ripped (confidence 3) [C7F6F1C4] (AR v2)
Track 3 accurately ripped (confidence 3) [66B76C7C] (AR v2)
Track 4 accurately ripped (confidence 3) [B5EAAFEA] (AR v2)
Track 5 accurately ripped (confidence 3) [F6984BFE] (AR v2)
Track 6 accurately ripped (confidence 3) [F930B469] (AR v2)
Track 7 accurately ripped (confidence 3) [D1462E91] (AR v2)
Track 8 accurately ripped (confidence 3) [4638B557] (AR v2)
Track 9 accurately ripped (confidence 3) [C928CD60] (AR v2)
Track 10 accurately ripped (confidence 3) [1D36557A] (AR v2)
All tracks accurately ripped
End of status report
==== Log checksum 4CA5488B7A98E4BBD955153B465F9E5B6FB909F693164B2E569598E9323C0193 ====
 
Содержание индексной карты (.CUE)
REM GENRE Jazz
REM DATE 1999
REM DISCID 7F0AF20A
REM COMMENT "ExactAudioCopy v1.0b2"
PERFORMER "The Brazz Brothers"
TITLE "Ngoma"
FILE "The Brazz Brothers (1999) - Ngoma.flac" WAVE
TRACK 01 AUDIO
TITLE "Zawose"
PERFORMER "The Brazz Brothers"
ISRC NOBBF9903010
INDEX 01 00:00:00
TRACK 02 AUDIO
TITLE "Ejala"
PERFORMER "The Brazz Brothers"
ISRC NOBBF9903020
INDEX 00 06:58:37
INDEX 01 07:05:27
TRACK 03 AUDIO
TITLE "Kongolela"
PERFORMER "The Brazz Brothers"
ISRC NOBBF9903030
INDEX 00 13:22:32
INDEX 01 13:26:15
TRACK 04 AUDIO
TITLE "Hey, Hey Beautiful Girl"
PERFORMER "The Brazz Brothers"
ISRC NOBBF9903040
INDEX 00 17:25:05
INDEX 01 17:29:25
TRACK 05 AUDIO
TITLE "Maasai"
PERFORMER "The Brazz Brothers"
ISRC NOBBF9903050
INDEX 00 20:10:17
INDEX 01 20:15:42
TRACK 06 AUDIO
TITLE "Tintiyana"
PERFORMER "The Brazz Brothers"
ISRC NOBBF9903060
INDEX 00 26:15:65
INDEX 01 26:17:07
TRACK 07 AUDIO
TITLE "African Marketplace"
PERFORMER "The Brazz Brothers"
ISRC NOBBF9903070
INDEX 00 30:53:25
INDEX 01 30:58:57
TRACK 08 AUDIO
TITLE "Maraba Blue"
PERFORMER "The Brazz Brothers"
ISRC NOBBF9903080
INDEX 00 35:05:70
INDEX 01 35:13:20
TRACK 09 AUDIO
TITLE "Chisa"
PERFORMER "The Brazz Brothers"
ISRC NOBBF9903090
INDEX 00 39:21:05
INDEX 01 39:23:55
TRACK 10 AUDIO
TITLE "My Kind of Jazz"
PERFORMER "The Brazz Brothers"
ISRC NOBBF9903100
INDEX 00 43:42:40
INDEX 01 43:44:37
 
Доп. информация
Recorded July 1999 in Rommarö Studio, Sweden.
 
Об исполнителе (группе)
 
Состав
The Brazz Brothers:
Jarle Førde - trumpet, vocal (solo on #06 and #10)
Jan Magne Førde - trumpet, flugelhorn, kalimba, marimba, vocal (solo on #02 and #09)
Runar Tafjord - french horn, vocal
Helge Førde - trombone, vocal
Stein Erik Tafjord - tuba, vocal
Marcus Lewin - drums and percussion
Guest vocal:
Anna Lewin - vocal on #03 and #04
21:13
299
Нет комментариев. Ваш будет первым!