Поиск

(ACT Music, World Fusion, Latin Jazz) [CD] Gerardo Nunez & Ulf Wakenius (with Chano Dominguez, Ramon Valle Trio, Christof Lauer, Cepillo) - Jazzpana Live - 2015, FLAC (tracks+.cue), lossless

(ACT Music, World Fusion, Latin Jazz) [CD] Gerardo Nunez & Ulf Wakenius (with Chano Dominguez, Ramon Valle Trio, Christof Lauer, Cepillo) - Jazzpana Live - 2015, FLAC (tracks+.cue), lossless
Издатель (лейбл):
Треклист:
Gerardo Nuñez' Ulf Wakenius
JAZZPAÑA live
Chano Domínguez
Ramón Valle Trio
Christof Lauer
Cepillo
Жанр: World Fusion, Latin Jazz
Страна-производитель диска: Germany
Год издания: 2015
Издатель (лейбл): ACT Music
Номер по каталогу: ACT 9585-2
Страна исполнителя (группы): International
Аудиокодек: FLAC (*.flac)
Тип рипа: tracks+.cue
Битрейт аудио: lossless
Продолжительность: 63:06
Источник (релизер): спасибо embeejay
Наличие сканов: нет
Треклист:
1. Calima
2. Alma De Mujer
3. Para Chick
4. Siboney
5. Blues For Pablo
6. El Vito
7. Calima (Encore)
 
Лог создания рипа
Exact Audio Copy V1.0 beta 6 from 9. April 2015
EAC extraction logfile from 24. September 2015, 10:39
Gerardo Núñez / Jazzpaña
Used drive : Optiarc DVD RW AD-7260S Adapter: 1 ID: 0
Read mode : Secure
Utilize accurate stream : Yes
Defeat audio cache : Yes
Make use of C2 pointers : No
Read offset correction : 48
Overread into Lead-In and Lead-Out : No
Fill up missing offset samples with silence : Yes
Delete leading and trailing silent blocks : No
Null samples used in CRC calculations : Yes
Used interface : Native Win32 interface for Win NT & 2000
Gap handling : Appended to previous track
Used output format : User Defined Encoder
Selected bitrate : 1024 kBit/s
Quality : High
Add ID3 tag : No
Command line compressor : C:\Program Files (x86)\Exact Audio Copy\FLAC\FLAC.EXE
Additional command line options : -8 -V -T "ARTIST=%artist%" -T "TITLE=%title%" -T "ALBUM=%albumtitle%" -T "DATE=%year%" -T "TRACKNUMBER=%tracknr%" -T "GENRE=%genre%" -T "PERFORMER=%albuminterpret%" -T "COMPOSER=%composer%" %haslyrics%--tag-from-file=LYRICS="%lyricsfile%"%haslyrics% -T "ALBUMARTIST=%albumartist%" -T "DISCNUMBER=%cdnumber%" -T "TOTALDISCS=%totalcds%" -T "TOTALTRACKS=%numtracks%" -T "COMMENT=%comment%" %source% -o %dest%
TOC of the extracted CD
Track | Start | Length | Start sector | End sector
---------------------------------------------------------
1 | 0:00.00 | 11:45.49 | 0 | 52923
2 | 11:45.49 | 8:48.19 | 52924 | 92542
3 | 20:33.68 | 6:31.44 | 92543 | 121911
4 | 27:05.37 | 6:18.25 | 121912 | 150286
5 | 33:23.62 | 3:17.09 | 150287 | 165070
6 | 36:40.71 | 12:17.02 | 165071 | 220347
7 | 48:57.73 | 14:08.09 | 220348 | 283956
Track 1
Filename C:\!EAC Rips\Gerardo Núñez - Jazzpaña (2015) [FLAC]\01 - Calima.wav
Pre-gap length 0:00:02.00
Peak level 92.1 %
Extraction speed 2.8 X
Track quality 100.0 %
Test CRC E2B1F823
Copy CRC E2B1F823
Accurately ripped (confidence 2) [E257E433] (AR v2)
Copy OK
Track 2
Filename C:\!EAC Rips\Gerardo Núñez - Jazzpaña (2015) [FLAC]\02 - Alma De Mujer.wav
Peak level 92.1 %
Extraction speed 3.4 X
Track quality 100.0 %
Test CRC FB58529D
Copy CRC FB58529D
Accurately ripped (confidence 2) [18151D1D] (AR v2)
Copy OK
Track 3
Filename C:\!EAC Rips\Gerardo Núñez - Jazzpaña (2015) [FLAC]\03 - Para Chick.wav
Peak level 92.1 %
Extraction speed 3.7 X
Track quality 100.0 %
Test CRC 0F383673
Copy CRC 0F383673
Accurately ripped (confidence 2) [7A58FEC4] (AR v2)
Copy OK
Track 4
Filename C:\!EAC Rips\Gerardo Núñez - Jazzpaña (2015) [FLAC]\04 - Siboney.wav
Peak level 92.1 %
Extraction speed 3.9 X
Track quality 100.0 %
Test CRC 9155BC0C
Copy CRC 9155BC0C
Accurately ripped (confidence 2) [7783850F] (AR v2)
Copy OK
Track 5
Filename C:\!EAC Rips\Gerardo Núñez - Jazzpaña (2015) [FLAC]\05 - Blues For Pablo.wav
Peak level 92.1 %
Extraction speed 3.8 X
Track quality 100.0 %
Test CRC E0E017E0
Copy CRC E0E017E0
Accurately ripped (confidence 2) [FFF65DAC] (AR v2)
Copy OK
Track 6
Filename C:\!EAC Rips\Gerardo Núñez - Jazzpaña (2015) [FLAC]\06 - El Vito.wav
Peak level 92.1 %
Extraction speed 4.4 X
Track quality 99.9 %
Test CRC 6A692806
Copy CRC 6A692806
Accurately ripped (confidence 2) [80EF4D93] (AR v2)
Copy OK
Track 7
Filename C:\!EAC Rips\Gerardo Núñez - Jazzpaña (2015) [FLAC]\07 - Calima (Encore).wav
Peak level 92.1 %
Extraction speed 5.1 X
Track quality 100.0 %
Test CRC 6E4C0653
Copy CRC 6E4C0653
Accurately ripped (confidence 2) [AC2EB1C4] (AR v2)
Copy OK
All tracks accurately ripped
No errors occurred
End of status report
---- CUETools DB Plugin V2.1.6
[CTDB TOCID: YkXoYlR6HzTjAZzj3VYrP.V5Ukk-] found
Submit result: YkXoYlR6HzTjAZzj3VYrP.V5Ukk- has been confirmed
Track | CTDB Status
1 | (7/7) Accurately ripped
2 | (7/7) Accurately ripped
3 | (7/7) Accurately ripped
4 | (7/7) Accurately ripped
5 | (7/7) Accurately ripped
6 | (7/7) Accurately ripped
7 | (7/7) Accurately ripped
==== Log checksum E1AEB909855CFE872435677DD288C2DF0FBAD0EC1BA4D02C0067863F1CB112C3 ====
 
Содержание индексной карты (.CUE)
REM GENRE "Jazz, Latin"
REM DATE 2015
REM DISCID 4F0ECA07
REM COMMENT "ExactAudioCopy v1.0b6"
PERFORMER "Gerardo Nunez"
TITLE "Jazzpana"
FILE "01 - Calima.wav" WAVE
TRACK 01 AUDIO
TITLE "Calima"
PERFORMER "Gerardo Nunez"
ISRC DEA891500240
INDEX 01 00:00:00
FILE "02 - Alma De Mujer.wav" WAVE
TRACK 02 AUDIO
TITLE "Alma De Mujer"
PERFORMER "Gerardo Nunez"
ISRC DEA891500241
INDEX 01 00:00:00
FILE "03 - Para Chick.wav" WAVE
TRACK 03 AUDIO
TITLE "Para Chick"
PERFORMER "Gerardo Nunez"
ISRC DEA891500242
INDEX 01 00:00:00
FILE "04 - Siboney.wav" WAVE
TRACK 04 AUDIO
TITLE "Siboney"
PERFORMER "Gerardo Nunez"
ISRC DEA891500243
INDEX 01 00:00:00
FILE "05 - Blues For Pablo.wav" WAVE
TRACK 05 AUDIO
TITLE "Blues For Pablo"
PERFORMER "Gerardo Nunez"
ISRC DEA891500244
INDEX 01 00:00:00
FILE "06 - El Vito.wav" WAVE
TRACK 06 AUDIO
TITLE "El Vito"
PERFORMER "Gerardo Nunez"
ISRC DEA891500245
INDEX 01 00:00:00
FILE "07 - Calima (Encore).wav" WAVE
TRACK 07 AUDIO
TITLE "Calima (Encore)"
PERFORMER "Gerardo Nunez"
ISRC DEA891500246
INDEX 01 00:00:00
 
Об альбоме
“Music for people with open ears and open minds. Far removed from a predefined style. Without any fear of mixing genres.” In 1992, this was the understanding of jazz that producer Siggi Loch based the launch of his ACT adventure on. The label’s very first recording, Jazzpaña, was to become a milestone and synonym for ACT’s philosophy, and became a double Grammy nominee in the process.
Jazzpaña brought the stars of the “Nuevo Flamenco” from Spain together with US jazz greats such as Michael Brecker, Peter Erskine and Al Di Meola, backed by the sound of the WDR Big Band. The arrangements came from Vince Mendoza, though a little-known artist at the time, he is now one of the most versatile and prolific composer-arranger-conductors of the last two decades, a multi-Grammy Award winner who has written arrangements for everyone from Joni Mitchell, Sting, Elvis Costello and Bjork to Joe Zawinul, John Scofield and Charlie Haden.
12-time Grammy winner and star producer Arif Mardin, who throughout the course of his career worked with greats such as Aretha Franklin, Whitney Houston and Norah Jones, completed the set with a suite of his own.
Jazzpaña sought to connect the unexpected, in this case Flamenco and Jazz, and one album became two in 2000 with a smaller, but no less prominent line-up. Jazzpaña II was led by Gerardo Núñez and Chano Domínguez and peppered with soloists like Jorge Pardo, Perico Sambeat and again Michael Brecker. Once again, it was a huge success: “Grandiose Musik” proclaimed Germany’s esteemed magazine Der Spiegel.
Now, 15 years on from Jazzpaña II, and over two decades since the original idea was conceived, ACT presents Jazzpaña live. This latest chapter in the Jazzpaña story was recorded live from both the Berlin Philharmonie Kammermusiksaal and WDR 3 Jazzfest in Dortmund. For this concert, once again both Jazz and Flamenco combine through Spanish Guitarist Gerardo Núñez, considered the heir apparent to the great Paco de Lucía, and Swedish guitar virtuoso Ulf Wakenius, however this time a third element, Cuba, is added courtesy of Cuban pianist Ramón Valle.
His trio explores the close relationship between Hispanic music and the music of Andalusia, with the results particularly impressive on “Siboney”, an homage to the greatest of all Cuban composers, Ernesto Lecuona.
 
Состав

Gerardo Núñez - flamenco guitar
Ulf Wakenius - jazz guitar
Chano Domínguez - piano
Ramón Valle - piano
Omar Rodriguez Calvo - bass
Liber Torriente - drums
Christof Lauer - saxophone
& Cepillo - percussion
Recorded live in concert at the Berlin Philharmonie, October 21, 2014 and at the WDR 3 Jazzfest 2015, Dortmund, January 31, 2015.
19:38
353
Нет комментариев. Ваш будет первым!