Вы используете незарегистрированную версию компонента "Вкладки"!

Поиск

(ACT, Modern Creative, Free Jazz, Contemporary Jazz) Wollny / Kruse / Schaefer - [em] II - 2006, FLAC (tracks+.cue), lossless

Треклист:
Wollny / Kruse / Schaefer - [ em ] II
Michael Wollny/Eva Kruse/Eric Schaefer - [ em ] II

Жанр: ACT, Modern Creative, Free Jazz, Contemporary Jazz
Год выпуска диска: 2006
Производитель диска: ACT {9655-2}
Аудио кодек: FLAC
Тип рипа: tracks+.cue
Битрейт аудио: lossless
Продолжительность: 54:40
Трэклист:
1. Bruder - 00:57 (Wollny, Michael / Kruse, Eva / Schaefer, Eric)
2. Phlegma Phighter - 05:19 (Schaefer, Eric)
3. Funèbre - 04:47 (Schaefer, Eric)
4. Irradians - 02:07 (Schaefer, Eric)
5. Another Mr. Lizard - 04:11 (Wollny, Michael)
6. Moving - 04:11 (Kruse, Eva)
7. Takashi - 04:53 (Wollny, Michael)
8. Schwester - 01:06 (Wollny, Michael / Kruse, Eva / Schaefer, Eric)
9. So Will Die Sonn' Nun Untergehen - 04:59 (Schaefer, Eric)
10. Walpurgisnacht - 05:12 (Wollny, Michael)
11. Brizzle - 02:49 (Kruse, Eva)
12. Rica - 04:39 (Schaefer, Eric)
13. Dance & Grow - 02:49 (Kruse, Eva)
14. Schneefall - 02:20 (Kruse, Eva)
15. Gorilla Biscuits - 04:15 (Schaefer, Eric)
 
log
Exact Audio Copy V0.99 prebeta 5 from 4. May 2009
EAC extraction logfile from 12. April 2010, 22:20
Wollny, Kruse, Schaefer / [em] II
Used drive : TSSTcorpCDDVDW TS-L633A Adapter: 0 ID: 1
Read mode : Secure
Utilize accurate stream : Yes
Defeat audio cache : Yes
Make use of C2 pointers : No
Read offset correction : 6
Overread into Lead-In and Lead-Out : No
Fill up missing offset samples with silence : Yes
Delete leading and trailing silent blocks : No
Null samples used in CRC calculations : Yes
Used interface : Native Win32 interface for Win NT & 2000
Gap handling : Appended to previous track
Used output format : User Defined Encoder
Selected bitrate : 128 kBit/s
Quality : High
Add ID3 tag : No
Command line compressor : C:\Program Files\Exact Audio Copy\flac.exe
Additional command line options : -8 -V -T "ARTIST=%a" -T "TITLE=%t" -T "ALBUM=%g" -T "DATE=%y" -T "TRACKNUMBER=%n" -T "GENRE=%m" -T "COMMENT=EAC FLAC -8" %s
TOC of the extracted CD
Track | Start | Length | Start sector | End sector
---------------------------------------------------------
1 | 0:00.00 | 0:57.05 | 0 | 4279
2 | 0:57.05 | 5:19.32 | 4280 | 28236
3 | 6:16.37 | 4:47.19 | 28237 | 49780
4 | 11:03.56 | 2:06.69 | 49781 | 59299
5 | 13:10.50 | 4:10.73 | 59300 | 78122
6 | 17:21.48 | 4:17.10 | 78123 | 97407
7 | 21:38.58 | 4:52.70 | 97408 | 119377
8 | 26:31.53 | 1:06.02 | 119378 | 124329
9 | 27:37.55 | 4:58.73 | 124330 | 146752
10 | 32:36.53 | 5:11.68 | 146753 | 170145
11 | 37:48.46 | 2:48.52 | 170146 | 182797
12 | 40:37.23 | 4:38.46 | 182798 | 203693
13 | 45:15.69 | 2:49.25 | 203694 | 216393
14 | 48:05.19 | 2:20.27 | 216394 | 226920
15 | 50:25.46 | 4:14.57 | 226921 | 246027
Track 1
Filename E:\Wollny, Kruse, Schaefer - [em] II - (2006) [FLAC]\01 - Bruder.wav
Pre-gap length 0:00:02.00
Peak level 98.5 %
Track quality 100.0 %
Test CRC BDD9175B
Copy CRC BDD9175B
Accurately ripped (confidence 4) [30D1134C]
Copy OK
Track 2
Filename E:\Wollny, Kruse, Schaefer - [em] II - (2006) [FLAC]\02 - Phlegma Phighter.wav
Peak level 98.5 %
Track quality 99.9 %
Test CRC 2D510047
Copy CRC 2D510047
Accurately ripped (confidence 4) [993774DC]
Copy OK
Track 3
Filename E:\Wollny, Kruse, Schaefer - [em] II - (2006) [FLAC]\03 - Funebre.wav
Peak level 98.5 %
Track quality 100.0 %
Test CRC AEF85333
Copy CRC AEF85333
Accurately ripped (confidence 4) [9A8224F2]
Copy OK
Track 4
Filename E:\Wollny, Kruse, Schaefer - [em] II - (2006) [FLAC]\04 - Irradians.wav
Peak level 98.5 %
Track quality 100.0 %
Test CRC F5777815
Copy CRC F5777815
Accurately ripped (confidence 4) [179DDA38]
Copy OK
Track 5
Filename E:\Wollny, Kruse, Schaefer - [em] II - (2006) [FLAC]\05 - Another Mr Lizard.wav
Peak level 98.5 %
Track quality 100.0 %
Test CRC 89489401
Copy CRC 89489401
Accurately ripped (confidence 4) [066C9BE8]
Copy OK
Track 6
Filename E:\Wollny, Kruse, Schaefer - [em] II - (2006) [FLAC]\06 - Moving.wav
Peak level 98.5 %
Track quality 100.0 %
Test CRC 73DAF334
Copy CRC 73DAF334
Accurately ripped (confidence 4) [D908040F]
Copy OK
Track 7
Filename E:\Wollny, Kruse, Schaefer - [em] II - (2006) [FLAC]\07 - Takashi.wav
Peak level 98.5 %
Track quality 100.0 %
Test CRC 0523ED37
Copy CRC 0523ED37
Accurately ripped (confidence 4) [87438150]
Copy OK
Track 8
Filename E:\Wollny, Kruse, Schaefer - [em] II - (2006) [FLAC]\08 - Schwester.wav
Peak level 95.6 %
Track quality 100.0 %
Test CRC DC3D5D02
Copy CRC DC3D5D02
Accurately ripped (confidence 5) [7D1EA977]
Copy OK
Track 9
Filename E:\Wollny, Kruse, Schaefer - [em] II - (2006) [FLAC]\09 - So Will Die Sonn Nun Untergehn.wav
Peak level 98.5 %
Track quality 100.0 %
Test CRC 26540454
Copy CRC 26540454
Accurately ripped (confidence 4) [358F0805]
Copy OK
Track 10
Filename E:\Wollny, Kruse, Schaefer - [em] II - (2006) [FLAC]\10 - Walpurgisnacht.wav
Peak level 98.5 %
Track quality 100.0 %
Test CRC 40C56CA0
Copy CRC 40C56CA0
Accurately ripped (confidence 4) [5743928A]
Copy OK
Track 11
Filename E:\Wollny, Kruse, Schaefer - [em] II - (2006) [FLAC]\11 - Brizzle.wav
Peak level 98.5 %
Track quality 99.9 %
Test CRC CD783DCD
Copy CRC CD783DCD
Accurately ripped (confidence 4) [1EE352C8]
Copy OK
Track 12
Filename E:\Wollny, Kruse, Schaefer - [em] II - (2006) [FLAC]\12 - Rica.wav
Peak level 98.5 %
Track quality 99.9 %
Test CRC D051C58C
Copy CRC D051C58C
Accurately ripped (confidence 4) [D3EDE005]
Copy OK
Track 13
Filename E:\Wollny, Kruse, Schaefer - [em] II - (2006) [FLAC]\13 - Dance and Grow.wav
Peak level 98.5 %
Track quality 99.9 %
Test CRC 62E33423
Copy CRC 62E33423
Accurately ripped (confidence 4) [62CCD723]
Copy OK
Track 14
Filename E:\Wollny, Kruse, Schaefer - [em] II - (2006) [FLAC]\14 - Schneefall.wav
Peak level 98.5 %
Track quality 100.0 %
Test CRC 701D6567
Copy CRC 701D6567
Accurately ripped (confidence 4) [760D7DEA]
Copy OK
Track 15
Filename E:\Wollny, Kruse, Schaefer - [em] II - (2006) [FLAC]\15 - Gorilla Biscuits.wav
Peak level 98.5 %
Track quality 100.0 %
Test CRC F39088BB
Copy CRC F39088BB
Accurately ripped (confidence 4) [E97F8282]
Copy OK
All tracks accurately ripped
No errors occurred
End of status report
 
cue

Код:
REM GENRE Jazz
REM DATE 2006
REM DISCID E20CD00F
REM COMMENT "ExactAudioCopy v0.99pb5"
PERFORMER "Wollny, Kruse, Schaefer"
TITLE "[em] II"
FILE "01 - Bruder.wav" WAVE
  TRACK 01 AUDIO
    TITLE "Bruder"
    PERFORMER "Wollny, Kruse, Schaefer"
    INDEX 01 00:00:00
FILE "02 - Phlegma Phighter.wav" WAVE
  TRACK 02 AUDIO
    TITLE "Phlegma Phighter"
    PERFORMER "Wollny, Kruse, Schaefer"
    INDEX 01 00:00:00
FILE "03 - Funebre.wav" WAVE
  TRACK 03 AUDIO
    TITLE "Funebre"
    PERFORMER "Wollny, Kruse, Schaefer"
    INDEX 01 00:00:00
FILE "04 - Irradians.wav" WAVE
  TRACK 04 AUDIO
    TITLE "Irradians"
    PERFORMER "Wollny, Kruse, Schaefer"
    INDEX 01 00:00:00
FILE "05 - Another Mr Lizard.wav" WAVE
  TRACK 05 AUDIO
    TITLE "Another Mr Lizard"
    PERFORMER "Wollny, Kruse, Schaefer"
    INDEX 01 00:00:00
FILE "06 - Moving.wav" WAVE
  TRACK 06 AUDIO
    TITLE "Moving"
    PERFORMER "Wollny, Kruse, Schaefer"
    INDEX 01 00:00:00
FILE "07 - Takashi.wav" WAVE
  TRACK 07 AUDIO
    TITLE "Takashi"
    PERFORMER "Wollny, Kruse, Schaefer"
    INDEX 01 00:00:00
FILE "08 - Schwester.wav" WAVE
  TRACK 08 AUDIO
    TITLE "Schwester"
    PERFORMER "Wollny, Kruse, Schaefer"
    INDEX 01 00:00:00
FILE "09 - So Will Die Sonn Nun Untergehn.wav" WAVE
  TRACK 09 AUDIO
    TITLE "So Will Die Sonn Nun Untergehn"
    PERFORMER "Wollny, Kruse, Schaefer"
    INDEX 01 00:00:00
FILE "10 - Walpurgisnacht.wav" WAVE
  TRACK 10 AUDIO
    TITLE "Walpurgisnacht"
    PERFORMER "Wollny, Kruse, Schaefer"
    INDEX 01 00:00:00
FILE "11 - Brizzle.wav" WAVE
  TRACK 11 AUDIO
    TITLE "Brizzle"
    PERFORMER "Wollny, Kruse, Schaefer"
    INDEX 01 00:00:00
FILE "12 - Rica.wav" WAVE
  TRACK 12 AUDIO
    TITLE "Rica"
    PERFORMER "Wollny, Kruse, Schaefer"
    INDEX 01 00:00:00
FILE "13 - Dance and Grow.wav" WAVE
  TRACK 13 AUDIO
    TITLE "Dance and Grow"
    PERFORMER "Wollny, Kruse, Schaefer"
    INDEX 01 00:00:00
FILE "14 - Schneefall.wav" WAVE
  TRACK 14 AUDIO
    TITLE "Schneefall"
    PERFORMER "Wollny, Kruse, Schaefer"
    INDEX 01 00:00:00
FILE "15 - Gorilla Biscuits.wav" WAVE
  TRACK 15 AUDIO
    TITLE "Gorilla Biscuits"
    PERFORMER "Wollny, Kruse, Schaefer"
    INDEX 01 00:00:00

Доп. информация:
Line Up:
Michael Wollny – piano
Eva Kruse – bass
Eric Schaefer – drums
 
info
Recorded and mixed in September 2005 and February 2006 at Bohus Sound Recording Studios, Göteborg, Sweden, by Ake Linton.
Mastered by Klaus Scheuermann.
Produced by [em].

Диск взят с другого трекера. Спасибо за проделанную работу и качественный рип jazz11

Wollny / Kruse / Schaefer - [em] 3
По всем вопросам пишите личное сообщение пользователю M0p94ok.
21:18
213
Нет комментариев. Ваш будет первым!