Вы используете незарегистрированную версию компонента "Вкладки"!

Поиск

(Acoustic Guitar, Smooth Jazz, New Age, Flamenco) Antonio Forcione - Коллекция (12 альбомов)[1992-2006], Naim Label, lossless

(Acoustic Guitar, Smooth Jazz, New Age, Flamenco) Antonio Forcione - Коллекция (12 альбомов)[1992-2006], Naim Label, lossless
Треклист:
Antonio Forcione / Коллекция
Жанр: Acoustic Guitar, Smooth Jazz, Folk, Flamenco
Производитель диска: UK
Label: Naim
Аудио кодек: APE, FLAC
До полной дискографии, к сожалению, пока не хватает одного диска. С его появлением эта раздача обязательно пополнится.
Тут можно скачать полную дискографию в MP3 формате http://rutracker.org/forum/viewtopic.php?t=1402148
Официальный сайт музыканта: http://www.antonioforcione.com
Раздача Antonio Forcione Quartet in Concert
http://rutracker.org/forum/viewtopic.php?p=19294167#19294167
Кстати настоятельно рекомендую поглядеть это пятиминутное видео с Форсионе и Хередиа !!
FlamenComedy. Очень весело !)
http://www.youtube.com/watch?v=APxW6zh0xVM
http://www.youtube.com/watch?v=w3ExH2Goc_c--------------------------------------------------------------------------------Альбомы--------------------------------------------------------------------------------
 
1992 Poema - Antonio Forcione & Eduardo Niebla
1. Poema
2. Superlatino
3. Ronnie
4. Primavera
5. Sunrise
6. Snow
7. Haciendo Camino
8. Long Winter
 
LOG
EAC extraction logfile from 28. May 2006, 0:05 for CD
Eduardo Niebla/AntonioForcione / Poema
Used drive : PLEXTOR CD-R PREMIUM Adapter: 3 ID: 0
Read mode : Secure with NO C2, accurate stream, disable cache
Read offset correction : 30
Overread into Lead-In and Lead-Out : No
Used output format : Internal WAV Routines
44.100 Hz; 16 Bit; Stereo
Other options :
Fill up missing offset samples with silence : Yes
Delete leading and trailing silent blocks : No
Installed external ASPI interface
Track 1
Filename C:\Eduardo Niebla,AntonioForcione - 1992 - Poema - 01 - Poema.wav
Pre-gap length 0:00:02.44
Peak level 100.0 %
Track quality 100.0 %
Copy CRC C856E2FC
Copy OK
Track 2
Filename C:\Documents and Settings\me\Desktop\Ornella-Temp\Eac-extract\Eduardo Niebla,AntonioForcione - 1992 - Poema - 02 - Superlatino.wav
Pre-gap length 0:00:01.40
Peak level 100.0 %
Track quality 100.0 %
Copy CRC 89616170
Copy OK
Track 3
Filename C:\Documents and Settings\me\Desktop\Ornella-Temp\Eac-extract\Eduardo Niebla,AntonioForcione - 1992 - Poema - 03 - Ronnie.wav
Pre-gap length 0:00:00.37
Peak level 89.2 %
Track quality 100.0 %
Copy CRC 44784A89
Copy OK
Track 4
Filename C:\Documents and Settings\me\Desktop\Ornella-Temp\Eac-extract\Eduardo Niebla,AntonioForcione - 1992 - Poema - 04 - Primavera.wav
Pre-gap length 0:00:01.44
Peak level 100.0 %
Track quality 100.0 %
Copy CRC ED348136
Copy OK
Track 5
Filename C:\Documents and Settings\me\Desktop\Ornella-Temp\Eac-extract\Eduardo Niebla,AntonioForcione - 1992 - Poema - 05 - Sunrise.wav
Pre-gap length 0:00:02.26
Peak level 100.0 %
Track quality 100.0 %
Copy CRC 596149E9
Copy OK
Track 6
Filename C:\Documents and Settings\me\Desktop\Ornella-Temp\Eac-extract\Eduardo Niebla,AntonioForcione - 1992 - Poema - 06 - Snow.wav
Pre-gap length 0:00:02.93
Peak level 71.6 %
Track quality 100.0 %
Copy CRC DE1F62C0
Copy OK
Track 7
Filename C:\Documents and Settings\me\Desktop\Ornella-Temp\Eac-extract\Eduardo Niebla,AntonioForcione - 1992 - Poema - 07 - Hacienda Camino.wav
Pre-gap length 0:00:01.96
Peak level 100.0 %
Track quality 100.0 %
Copy CRC D365AEE4
Copy OK
Track 8
Filename C:\Documents and Settings\me\Desktop\Ornella-Temp\Eac-extract\Eduardo Niebla,AntonioForcione - 1992 - Poema - 08 - The Long Winter.wav
Pre-gap length 0:00:02.04
Peak level 99.9 %
Track quality 100.0 %
Copy CRC 89B91ABC
Copy OK
No errors occured
End of status report
 
1993 Acoustic Revenge (1997 Naim Label re-mastered)
1. Gypsy Dreams
2. Acoustic Revenge
3. Infanzia
4. Enigma
5. Black Magic
6. Anna
7. Easy Going
8. Heartbeat
Musicians appearing with Antonio on this recording:
Davide Mantovani - fretless bass
Peter Lockett - percussion
Marcial Heredia - guitar
(1993, re-released on Naim Label in 1997, naimcd 017)
One of Antonio's personal favourites, this album of original material is intense, dynamic and soulful. Here he plays solo and with his band.
"ferocious, rampaging, controlled power, meticulous, precision and clarity of expression"
(Audiophile)
 
LOG
Las caratulas originales no las tengo.
Estas me las he hecho yo, buceando en la red.
Pasa el APE a WAV, y luego lo tuestas con el Nero.
El disco estб grabado en Jazz Audio en Mallorca, y estaba sin carбtula.
Espero que te guste.
Un abrazo.
EAC extraction logfile from 6. October 2003, 9:44 for CD
Unknown Artist / Unknown Title
Used drive : HL-DT-STCD-RW GCE-8520B Adapter: 0 ID: 1
Read mode : Secure with C2, accurate stream, disable cache
Combined read/write offset correction : 0
Overread into Lead-In and Lead-Out : No
Used output format : Internal WAV Routines
44.100 Hz; 16 Bit; Stereo
Other options :
Fill up missing offset samples with silence : Yes
Delete leading and trailing silent blocks : No
Installed external ASPI interface
Range status and errors
Selected range
Filename D:\Plugin Nero (Aac-Ape-Ogg-Lame-Mpc)\CDImage.wav
Peak level 88.5 %
Range quality 99.9 %
CRC CFAA566D
Copy OK
No errors occured
End of status report
 
1993 Live At The Edinburghi Festival - Antonio Forcione & Neil Stacey
1. A Tempo
2. Waltz
3. Snow
4. Superlatino
5. Sunstep
6. Folk Song
7. Imprivisation
8. Light & Shade
Musicians appearing on this recording:
Antonio - nylon string guitar
Neil Stacey - steel string acoustic guitar
First release by Acoustic Mania, the hot guitar duo (Antonio and Neil Stacey) at one of their sell-out concerts at the Edinburgh Festival. A combination of diverse musical references from French waltz to Brazilian flavour plus original compositions.
A breath of fresh air...
 
LOG
Registo da extracзгo do EAC de 26. Fevereiro 2006, 20:39 para CD
Antonio Forcione, Neil Stacey / Live at the Edinburgh Festival
Unidade utilizada : PHILIPS DVDR1648P1 Adapter: 2 ID: 0
Modo de Leitura : Seguro SEM C2, fluxo preciso, desligar cache
Correcзгo de offset de leitura/escrita combinada : 0
Sobrescrever no Lead-In e Lead-Out : Nгo
Formato de saнda utilizado : C:\Programas\Monkey's Audio\MAC.exe (Encoder Monkey's Audio Lossless)
Normal Lossless Compression
Outras opзхes :
Preencher offset samples em falta com silкncio : Sim
Eliminar blocos de silкncio dianteiros e finais : Nгo
Interface nativa Win32 para Win NT & 2000
Estado e erros dos limites
Limites Seleccionados
Nome de ficheiro C:\Documents and Settings\Jaime\Ambiente de trabalho\backup dvd\CDImage.wav
Nнvel de pico 100.0 %
Qualidade dos limites 100.0 %
CRC 49490B6E
Cуpia OK
Nгo ocorreram erros
Fim do relatуrio de estado
 
1996 Dedicato - Antonio Forcione
1996, Naim Label, naimcd 013
Dedicato album cover sample
1. Tiramisu
2. Twilight
3. Maya's Song
4. Dedicato
5. I heard it through the grapevine
6. Tango Nights
7. Attempo
8. Come Together
9. Folk Song
10. Nocturne
Musicians appearing with Antonio on this recording:
Bosco de Oliveira - percussion
Julian Arguelles - soprano sax
Sabine Kabongo - voice
Malcolm Creese - bass
Antonio solo and with his band (sax, voice, percussion and bass). This popular album of mainly originals stayed the top 10 jazz FM charts for several months.
"Absolutely gorgeous Latinate guitar, not unlike Feliciano minus the vocals... great taste in material"
(Hi Fi News)
 
Отчет APE Batch Check
------------------------------------------
Filename : CDImage.ape (187.62mb)
Source : CDDA (probability 100%)
Detect Mode : 8
Date : 15.01.2009 10-24-11
------------------------------------------
File Generated by Ape Batch Check 1.4a (build 29.04.2008)
 
1997 Meet me in London - Antonio Forcione & Sabina Sciubba
1997, Naim Label, naimcd 021
Meet me in London album cover sample
1. Visions
2. Take Five
3. Caruso
4. Why can't we live together
5. Night Train
6. Could you believe?
7. When we two parted
8. Brasilico
9. Estate
Musicians appearing with Antonio on this recording:
Sabina Sciubba - voice
Davide Mantovani - fretless bass
Bosco de Oliveira - percussion
Adam Glasser - harmonica
Malcolm Creese - double bass
Singing sensation Sabina joins Antonio for this fascinating collection of jazz standards, rearranged pop classics and some enchanting new compositions - a rare blend of pure magic and undiluted genius. MVC Top 10.
"leaving you hanging there somewhere between the sea and the moon"
(New Insight)
 
LOG
------------------------------------------
Filename : CDImage.ape (182.55mb)
Source : CDDA (probability 100%)
Detect Mode : 8
Date : 02.01.2009 01-35-44
------------------------------------------
File Generated by Ape Batch Check 1.4a (build 29.04.2008)
 
1997 Talking Hands - Antonio Forcione & Neil Stacey
1997, Naim Label, naimcd 020
Talking Hands album cover
1. Birdland
2. David
3. Festival
4. Karate
5. Letter from Spain
6. Talking Hands
7. Dylan
8. Czardas
9. Snow
Musicians appearing on this recording:
Antonio - nylon string guitar
Neil Stacey - steel string guitar
The acoustic guitar duo, Acoustic Mania, with Neil Stacey.
This dynamic album hit the jazz charts with its own brand of jazz, Brazilian, Spanish, folk and classical sounds.
"two players intent on redefining all known laws concerning what is possible with two acoustic guitars"
 
LOG
EAC extraction logfile from 23. September 2007, 14:54 for CD
Acoustic Mania / Talking Hands
Used drive : HL-DT-STDVDRAM GSA-H10N Adapter: 0 ID: 1
Read mode : Secure with NO C2, accurate stream, disable cache
Read offset correction : 667
Overread into Lead-In and Lead-Out : No
Used output format : C:\Program Files\FLAC\flac.exe (User Defined Encoder)
320 kBit/s
Additional command line options : -V -5 -T "artist=%a" -T "title=%t" -T "album=%g" -T "date=%y" -T "tracknumber=%n" -T "genre=%m" %s
Other options :
Fill up missing offset samples with silence : Yes
Delete leading and trailing silent blocks : No
Installed external ASPI interface
Track 1
Filename C:\Documents and Settings\Admin\Desktop\Acoustic Mania - Talking Hands Naim Audiophile\01 - Birdland - Zawinul.wav
Pre-gap length 0:00:02.00
Peak level 95.9 %
Track quality 100.0 %
Test CRC 903FBE64
Copy CRC 903FBE64
Copy OK
Track 2
Filename C:\Documents and Settings\Admin\Desktop\Acoustic Mania - Talking Hands Naim Audiophile\02 - David - McLaughlin.wav
Pre-gap length 0:00:01.84
Peak level 86.5 %
Track quality 100.0 %
Test CRC FEA98936
Copy CRC FEA98936
Copy OK
Track 3
Filename C:\Documents and Settings\Admin\Desktop\Acoustic Mania - Talking Hands Naim Audiophile\03 - Festival - Stacey.wav
Peak level 73.5 %
Track quality 100.0 %
Test CRC 77086C95
Copy CRC 77086C95
Copy OK
Track 4
Filename C:\Documents and Settings\Admin\Desktop\Acoustic Mania - Talking Hands Naim Audiophile\04 - Karate - Gismonti.wav
Peak level 91.8 %
Track quality 100.0 %
Test CRC D16832BC
Copy CRC D16832BC
Copy OK
Track 5
Filename C:\Documents and Settings\Admin\Desktop\Acoustic Mania - Talking Hands Naim Audiophile\05 - Letter from Spain - Forcione.wav
Peak level 64.8 %
Track quality 100.0 %
Test CRC 895C46F2
Copy CRC 895C46F2
Copy OK
Track 6
Filename C:\Documents and Settings\Admin\Desktop\Acoustic Mania - Talking Hands Naim Audiophile\06 - Talking Hands - Forcione.wav
Peak level 87.4 %
Track quality 99.9 %
Test CRC 10E30B31
Copy CRC 10E30B31
Copy OK
Track 7
Filename C:\Documents and Settings\Admin\Desktop\Acoustic Mania - Talking Hands Naim Audiophile\07 - Dylan - Stacey.wav
Peak level 74.3 %
Track quality 100.0 %
Test CRC 7BC5B871
Copy CRC 7BC5B871
Copy OK
Track 8
Filename C:\Documents and Settings\Admin\Desktop\Acoustic Mania - Talking Hands Naim Audiophile\08 - Czardas - Monti.wav
Peak level 89.0 %
Track quality 100.0 %
Test CRC 80A80BE7
Copy CRC 80A80BE7
Copy OK
Track 9
Filename C:\Documents and Settings\Admin\Desktop\Acoustic Mania - Talking Hands Naim Audiophile\09 - Snow - Forcione.wav
Pre-gap length 0:00:01.22
Peak level 76.0 %
Track quality 100.0 %
Test CRC A7382F67
Copy CRC A7382F67
Copy OK
No errors occured
End of status report
 
1998 Ghetto Paradise - Antonio Forcione
1998, Naim Label
Ghetto Paradise album cover
1. Maurizio's Party
2. Alhambra
3. Night Passage
4. Indian Cafe
5. Horserun
6. Sereno
7. Salsa and Basilico
8. If...
Musicians appearing with Antonio on this recording:
Trilok Gurtu - drums, tablas, shakers
Kai Eckhardt de Camargo - fretless bass
Roberto Manzin - alto sax
Davide Mantovani - bass & synth horn
Sonal Varsani - voice
Ed Jones - soprano sax
Ansuman Biswas - vibratone, overtones
Bosco de Oliveira - percussion, timbales
Nic France - drums
David Vaughan - synth
One of Antonio's most mature and exciting works, this album features world-renowned Indian percussionist Trilok Gurtu and bassist Kai Eckhardt amongst others. Antonio performs on his custom-made acoustic fretless guitar, the Uddan.
 
LOG
E
------------------------------------------------------------
EAC extraction logfile from 10. November 2006, 23:06 for CD
Antonio Forcione / Ghetto Paradise
Used drive : PLEXTOR CD-R PX-W4824A Adapter: 2 ID: 2
Read mode : Secure with NO C2, accurate stream, disable cache
Read offset correction : 98
Overread into Lead-In and Lead-Out : No
Used output format : C:\Programme\Exact Audio Copy\flac.exe (User Defined Encoder)
320 kBit/s
Additional command line options : --best -T "ARTIST=%a" -T "TITLE=%t" -T "ALBUM=%g" -T "DATE=%y" -T "TRACKNUMBER=%n" -T "GENRE=%m" %s
Other options :
Fill up missing offset samples with silence : Yes
Delete leading and trailing silent blocks : No
Installed external ASPI interface
Range status and errors
Selected range
Filename F:\ own rips Ghetto Paradise\Antonio Forcione - Ghetto Paradise.wav
Peak level 98.5 %
Range quality 100.0 %
CRC 728A9B61
Copy OK
No errors occured
End of status report
 
2000 Live! - Antonio Forcione
2000, Naim Label
Live! album cover sample
Live solo guitar performance recorded at The Vortex in London.
1. Heartbeat
2. Acoustic Revenge
3. Sereno
4. I heard it through the grapevine
5. Mirage
6. African Dawn
7. Diary
8. Nocturne
9. Black Magic
10. Night Passage
Musicians appearing with Antonio on this recording:
Nic France - drums
Rony Barrak - Middle Eastern tabla
Live solo guitar performance recorded at The Vortex in London.
"Antonio has a never-ending facility to pull sublime melodies out of the air with improvisations that are pure sonic sunbeams ... a hugely satisfying and entertaining album"
(David Freeman)
 
LOG
AUDIOCHECKER v2.0 beta (build 457) - by Dester - opdester@freemail.hu
~~~~~~~~~~~~~~~~~~~~~~~~~~~~~~~~~~
Started at: вторник, 04. 03. 2008. - 10:05.46
10 files found
01 -===- H:\!!!SHARE\!MEDIA\Antonio.Forcione..Live!.[FLAC]\Track10.flac
Extracted successfully
Conclusion: this track is CDDA with probability 100%
Tempfile successfully deleted.
02 -===- H:\!!!SHARE\!MEDIA\Antonio.Forcione..Live!.[FLAC]\Track01.flac
Extracted successfully
Conclusion: this track is CDDA with probability 100%
Tempfile successfully deleted.
03 -===- H:\!!!SHARE\!MEDIA\Antonio.Forcione..Live!.[FLAC]\Track02.flac
Extracted successfully
Conclusion: this track is CDDA with probability 99%
Tempfile successfully deleted.
04 -===- H:\!!!SHARE\!MEDIA\Antonio.Forcione..Live!.[FLAC]\Track03.flac
Extracted successfully
Conclusion: this track is CDDA with probability 100%
Tempfile successfully deleted.
05 -===- H:\!!!SHARE\!MEDIA\Antonio.Forcione..Live!.[FLAC]\Track04.flac
Extracted successfully
Conclusion: this track is CDDA with probability 85%
Tempfile successfully deleted.
06 -===- H:\!!!SHARE\!MEDIA\Antonio.Forcione..Live!.[FLAC]\Track05.flac
Extracted successfully
Conclusion: this track is CDDA with probability 100%
Tempfile successfully deleted.
07 -===- H:\!!!SHARE\!MEDIA\Antonio.Forcione..Live!.[FLAC]\Track06.flac
Extracted successfully
Conclusion: this track is CDDA with probability 100%
Tempfile successfully deleted.
08 -===- H:\!!!SHARE\!MEDIA\Antonio.Forcione..Live!.[FLAC]\Track07.flac
Extracted successfully
Conclusion: this track is CDDA with probability 99%
Tempfile successfully deleted.
09 -===- H:\!!!SHARE\!MEDIA\Antonio.Forcione..Live!.[FLAC]\Track08.flac
Extracted successfully
Conclusion: this track is CDDA with probability 100%
Tempfile successfully deleted.
10 -===- H:\!!!SHARE\!MEDIA\Antonio.Forcione..Live!.[FLAC]\Track09.flac
Extracted successfully
Conclusion: this track is CDDA with probability 100%
Tempfile successfully deleted.
Finished at: вторник, 04. 03. 2008. - 10:15.49 (operation time: 0:10.02)
 
2000 Vento Del Sud - Antonio Forcione & Benito Madonia
2000, Naim Label
Vento del Sud album cover
1. Come un Bambino
2. La Mia Infanzia
3. Caruso
4. Dedicato al Sud
5. La Canzone di Marinella
6. Fuori Gioco
7. Cammina Cammina
8. Torna a Surriento
9. Maria Mari
10. Anna
Musicians appearing with Antonio on this recording:
Benito Madonia - voice
Rossana Casale - voice
With singer Benito Madonia. Songs with an evocative southern Italian flavour.
 
LOG
------------------------------------------------
Filename : Vento Del Sud.ape (185.31mb)
Source : CDDA (probability 100%)
Detect Mode : 8
Date : 03.01.2009 08-39-02
------------------------------------------------
File Generated by Ape Batch Check 1.4a (build 29.04.2008)
 
2003 Touch Wood - Antonio Forcione
2003, Naim Label
Touch Wood sample
Antonio's latest album featuring the quartet plus special guests Sabina Sciubba and Diego el Cigala.
1. Touch Wood
2. Tarantella
3. Mirror, Mirror
4. Alhambra
5. Sunstep
6. Gigolo
7. Tango suite
8. For Vic
9. Watercolour
10. Nostalgia
11. Scrambled Eggs
12. Mirror
Musicians appearing with Antonio on this recording:
The Quartet:
Antonio Forcione – nylon, steel, 12-string guitars & fretless Ouddan guitar
Giorgio Serci - Guitar
Jenny Adejayan - Cello
Adriano Pinto - Percussion
With vocalists Diego el Cigala and Sabina Sciubba.
Enzo Zirilli, Pac Helder, Josue Ferreira, Matheus Nova, Bob Stukey.
Featuring the quartet plus special guests Sabina Sciubba and Diego el Cigala.
" …atmospheric and richly melodic set of self-penned originals, Forcione comfortably soaks up Southern European, Italian tarantella, Latin, gypsy-jazz, north African, blues and pastoral classical flavours into his own personal romantic aesthetic. "
 
LOG
----------------------------------------------------------------
Filename : Antonio Forcione - touch wood.ape (293.15mb)
Source : CDDA (probability 100%)
Detect Mode : 8
Date : 15.01.2009 10-31-13
----------------------------------------------------------------
File Generated by Ape Batch Check 1.4a (build 29.04.2008)
 
2005 Tears of Joy - Antonio Forcione
2005 Naim CD087
Tears of Joy sample
Antonio's latest album featuring the quartet plus a host of very special guests
1. 01. Tears of Joy
2. 02. Sahara Rain
3. 03. The Long Winter
4. 04. Spanish Breeze
5. 05. All Summer Long
6. 06. The Cool Cat
7. 07. Fragile
8. 08. Landmark
9. 09. Waltz for Django
10. 10. Earth Spirit
Musicians appearing with Antonio on this recording:
The Quartet:
Antonio Forcione (Italy) - Guitars
Jenny Adejayan (Grenada/Nigeria) - Cello
Adriano Pinto (Brazil) - Percussion
Igor Outkine (Russia) - Accordian With special guests:
Ronu Majumdar (India)- Bansuri
Nathan Thompson (Australia) - Double Bass
Enzo Zirilli (Italy) - Drums
Micheline Van Hautem (Belgium) - Vocals
Alex Wilson (UK/Sierra Leone) - Piano
Antonio's latest album featuring the quartet plus very special guests.
"Forcione must surely be considered one of the most dynamic and imaginative guitarists on the contemporary scene...the sonic quality is absolutely first class..."
(Jazzwise - June 2005)
 
LOG
Ape Batch Check 1.4
----------------------------------------------------
Filename : 01 - Tears of Joy.ape (23.56mb)
Source : CDDA (probability 100%)
Detect Mode : 8
Date : 17.03.2009 12-00-31
----------------------------------------------------
---------------------------------------------------
Filename : 02 - Sahara Rain.ape (26.66mb)
Source : CDDA (probability 100%)
Detect Mode : 8
Date : 17.03.2009 12-00-31
---------------------------------------------------
-------------------------------------------------------
Filename : 03 - The Long Winter.ape (37.38mb)
Source : CDDA (probability 100%)
Detect Mode : 8
Date : 17.03.2009 12-00-31
-------------------------------------------------------
------------------------------------------------------
Filename : 04 - Spanish Breeze.ape (27.50mb)
Source : CDDA (probability 100%)
Detect Mode : 8
Date : 17.03.2009 12-00-31
------------------------------------------------------
-------------------------------------------------------
Filename : 05 - All Summer Long.ape (22.98mb)
Source : CDDA (probability 100%)
Detect Mode : 8
Date : 17.03.2009 12-00-31
-------------------------------------------------------
----------------------------------------------------
Filename : 06 - The Cool Cat.ape (21.67mb)
Source : CDDA (probability 100%)
Detect Mode : 8
Date : 17.03.2009 12-00-31
----------------------------------------------------
-----------------------------------------------
Filename : 07 - Fragile.ape (19.43mb)
Source : CDDA (probability 100%)
Detect Mode : 8
Date : 17.03.2009 12-00-31
-----------------------------------------------
------------------------------------------------
Filename : 08 - Landmark.ape (25.10mb)
Source : CDDA (probability 100%)
Detect Mode : 8
Date : 17.03.2009 12-00-31
------------------------------------------------
--------------------------------------------------------
Filename : 09 - Waltz for Django.ape (20.09mb)
Source : CDDA (probability 100%)
Detect Mode : 8
Date : 17.03.2009 12-00-31
--------------------------------------------------------
----------------------------------------------------
Filename : 10 - Earth Spirit.ape (18.59mb)
Source : CDDA (probability 100%)
Detect Mode : 8
Date : 17.03.2009 12-00-31
----------------------------------------------------
File Generated by Ape Batch Check 1.4a (build 29.04.2008)
Monkey's Audio : (c) Matthew T. Ashland; http://www.monkeysaudio.com/
auCDtect.exe : (c) Oleg Berngardt; Alexander Djourik; http://www.true-audio.com
Ape Batch Check : Bete Noire; http://betenoire.narod.ru/
 
2006 Heartplay - Antonio Forcione & Charlie Haden
2005 Naim
Heartplay sample
Heartplay is a subtle and sublime collaboration. Charlie and Antonio play a combination of compositions by each other, and a beautifully sparkling track called Child's Play by Fred Hersch.
1. Anna (Forcione)
2. If... (Forcione)
3. La Pasionaria (Haden)
4. Snow (Forcione)
5. Silence (Haden)
6. Child's Song (Fred Hersch)
7. Nocturne (Forcione)
8. For Turiya (Haden)[listen]Musicians appearing with Antonio on this recording:
Charlie Haden - double bass
Antonio Forcione - guitar
Recorded at: The Californian Institute of the Arts on 26 - 28 June 2006.
The new release, called Heartplay, features eclectic Antonio Forcione and absolute legend of the double bass, Charlie Haden, playing a selection of originals.
"These duets with the great American jazz bassist Charlie Haden feature reflective but restlessly mobile originals by both players, plus pianist Fred Hersch's lovely Child Song. ... It's well up with the leaders in Haden's illustrious collection of duo encounters."
(The Guardian - 3 November 2006)
 
LOG
Exact Audio Copy V0.99 prebeta 4 from 23. January 2008
EAC extraction logfile from 10. February 2009, 14:40
Charlie Haden & Antonio Forcione / Heartplay
Used drive : HL-DT-STDVDRAM GMA-4082N Adapter: 0 ID: 0
Read mode : Secure
Utilize accurate stream : Yes
Defeat audio cache : No
Make use of C2 pointers : No
Read offset correction : 667
Overread into Lead-In and Lead-Out : No
Fill up missing offset samples with silence : Yes
Delete leading and trailing silent blocks : No
Null samples used in CRC calculations : No
Used interface : Native Win32 interface for Win NT & 2000
Used output format : User Defined Encoder
Selected bitrate : 768 kBit/s
Quality : High
Add ID3 tag : No
Command line compressor : C:\Program Files\Exact Audio Copy\FLAC\FLAC.EXE
Additional command line options : -6 -V -T "ARTIST=%a" -T "TITLE=%t" -T "ALBUM=%g" -T "DATE=%y" -T "TRACKNUMBER=%n" -T "GENRE=%m" -T "COMMENT=%e" %s -o %d
TOC of the extracted CD
Track | Start | Length | Start sector | End sector
---------------------------------------------------------
1 | 0:00.00 | 3:58.59 | 0 | 17908
2 | 3:58.59 | 2:57.37 | 17909 | 31220
3 | 6:56.21 | 8:21.54 | 31221 | 68849
4 | 15:18.00 | 6:02.38 | 68850 | 96037
5 | 21:20.38 | 6:22.56 | 96038 | 124743
6 | 27:43.19 | 8:05.52 | 124744 | 161170
7 | 35:48.71 | 2:38.55 | 161171 | 173075
8 | 38:27.51 | 11:13.74 | 173076 | 223624
Range status and errors
Selected range
Filename C:\Documents and Settings\Administrator\Desktop\RIP\Charlie Haden & Antonio Forcione - Heartplay\Charlie Haden & Antonio Forcione - Heartplay.wav
Peak level 98.8 %
Range quality 100.0 %
Test CRC 2C486EB7
Copy CRC 2C486EB7
Copy OK
No errors occurred
AccurateRip summary
Track 1 accurately ripped (confidence 7) [B91C0676]
Track 2 accurately ripped (confidence 7) [CEFCA3C4]
Track 3 accurately ripped (confidence 7) [E1DAE990]
Track 4 accurately ripped (confidence 7) [FB1524C4]
Track 5 accurately ripped (confidence 7) [AD18E647]
Track 6 accurately ripped (confidence 7) [BEC3ED9A]
Track 7 accurately ripped (confidence 7) [916DF34A]
Track 8 accurately ripped (confidence 7) [19EC3645]
All tracks accurately ripped
End of status report
----------------------------------------------------------------------------------------------------------------------------------------------------------------
 
Эта и другие мои раздачи по акустической гитаре
Don Ross и Andy McKee (Acoustic Guitar) http://rutracker.org/forum/viewtopic.php?p=21338209#21338209
Justin King (Acoustic guitar, acoustic tapping) http://rutracker.org/forum/viewtopic.php?t=227190
Kotaro Oshio (Acoustic guitar, acoustic tapping) http://rutracker.org/forum/viewtopic.php?t=1439549
Craig D'Andrea (Акустическая гитара): http://rutracker.org/forum/viewtopic.php?p=31231315#31231315
Michael Hedges http://rutracker.org/forum/viewtopic.php?t=1804846
Peter Finger (FingerStyle) http://rutracker.org/forum/viewtopic.php?t=1454265
Dominic Frasca (10 string guitar, piano fingerstyle) http://rutracker.org/forum/viewtopic.php?t=1449797
Antonio Forcione (Acoustiс guitar, Smooth Jazz) http://rutracker.org/forum/viewtopic.php?t=1442677
Ricardo Cobo (Classic) http://rutracker.org/forum/viewtopic.php?p=3583259
Erik Mongrain (Laptapping) http://rutracker.org/forum/viewtopic.php?t=1983519
Так же обязательно поглядите
Tommy Emmanuel http://rutracker.org/forum/viewtopic.php?t=1572573
Antoine Dufour http://rutracker.org/forum/viewtopic.php?t=1726772
Any questions - support@pro-jazz.com. Есть вопросы - support@pro-jazz.com
14:49
321
Нет комментариев. Ваш будет первым!