Вы используете незарегистрированную версию компонента "Вкладки"!

Поиск

(acoustic guitar, smooth jazz) Antonio Forcione - Touch Wood - 2003, FLAC (image+.cue), lossless

(acoustic guitar, smooth jazz) Antonio Forcione - Touch Wood - 2003, FLAC (image+.cue), lossless
Треклист:
Antonio Forcione / Touch Wood
Жанр: acoustic guitar, smooth jazz
Страна-производитель диска: Австрия
Год издания диска: 2003
Издатель (лейбл): NAIM Audio
Номер по каталогу: naimcd069
Страна: Италия
Аудиокодек: FLAC (*.flac)
Тип рипа: image+.cue
Битрейт аудио: lossless
Продолжительность: 56:13
Источник (релизер): коллекц. CD (Smartyr/Chief)
Наличие сканов в содержимом раздачи: да
Треклист:
1. Touch Wood 3:36
2. Tarantella 5:16
3. Mirror Mirror 2:24
4. Alhambra 7:56
5. Sunstep 5:42
6. Gigolo 4:15
7. Tango Suite/Libertango 7:08
8. For Vic 4:52
9. Watercolour 1:50
10. Nostalgia 6:28
11. Scrambled Eggs 4:24
12. Mirror 2:15
 
Лог создания рипа
Exact Audio Copy V1.0 beta 3 from 29. August 2011
EAC extraction logfile from 6. December 2011, 19:12
Antonio Forcione / Touch Wood
Used drive : Optiarc DVD RW AD-7200S Adapter: 1 ID: 0
Read mode : Secure
Utilize accurate stream : Yes
Defeat audio cache : Yes
Make use of C2 pointers : No
Read offset correction : 48
Overread into Lead-In and Lead-Out : No
Fill up missing offset samples with silence : Yes
Delete leading and trailing silent blocks : No
Null samples used in CRC calculations : Yes
Used interface : Installed external ASPI interface
Used output format : Internal WAV Routines
Sample format : 44.100 Hz; 16 Bit; Stereo
TOC of the extracted CD
Track | Start | Length | Start sector | End sector
---------------------------------------------------------
1 | 0:00.00 | 3:36.58 | 0 | 16257
2 | 3:36.58 | 5:16.21 | 16258 | 39978
3 | 8:53.04 | 2:25.03 | 39979 | 50856
4 | 11:18.07 | 7:55.73 | 50857 | 86554
5 | 19:14.05 | 5:42.58 | 86555 | 112262
6 | 24:56.63 | 4:15.35 | 112263 | 131422
7 | 29:12.23 | 7:08.33 | 131423 | 163555
8 | 36:20.56 | 4:52.35 | 163556 | 185490
9 | 41:13.16 | 1:50.13 | 185491 | 193753
10 | 43:03.29 | 6:28.05 | 193754 | 222858
11 | 49:31.34 | 4:24.67 | 222859 | 242725
12 | 53:56.26 | 2:15.53 | 242726 | 252903
13 | 58:44.04 | 13:55.65 | 264304 | 326993
Range status and errors
Selected range
Filename F:\ХРАНИЛИЩЕ\AUDIO\LOSSLESS\A. Forcione - Touch Wood\Antonio Forcione - Touch Wood.wav
Peak level 98.5 %
Extraction speed 3.2 X
Range quality 100.0 %
Copy CRC FC04CC04
Copy OK
No errors occurred
AccurateRip summary
Track 1 accurately ripped (confidence 14) [11D314B2] (AR v1)
Track 2 accurately ripped (confidence 14) [64826E4E] (AR v1)
Track 3 accurately ripped (confidence 14) [66576F6C] (AR v1)
Track 4 accurately ripped (confidence 14) [317A121E] (AR v1)
Track 5 accurately ripped (confidence 14) [DCEABE42] (AR v1)
Track 6 accurately ripped (confidence 14) [4A0B3ED8] (AR v1)
Track 7 accurately ripped (confidence 14) [CDE92E44] (AR v1)
Track 8 accurately ripped (confidence 14) [C7827308] (AR v1)
Track 9 accurately ripped (confidence 14) [4CC419EB] (AR v1)
Track 10 accurately ripped (confidence 14) [8F77BE40] (AR v1)
Track 11 accurately ripped (confidence 14) [B1A5518A] (AR v1)
Track 12 accurately ripped (confidence 14) [1A3CE4BE] (AR v1)
All tracks accurately ripped
End of status report
 
Содержание индексной карты (.CUE)
REM GENRE Acoustic
REM DATE 2003
REM DISCID C411070D
REM COMMENT "ExactAudioCopy v1.0b3"
PERFORMER "Antonio Forcione"
TITLE "Touch Wood"
FILE "Antonio Forcione - Touch Wood.flac" WAVE
TRACK 01 AUDIO
TITLE "Touch Wood"
PERFORMER "Antonio Forcione"
INDEX 01 00:00:00
TRACK 02 AUDIO
TITLE "Tarantella"
PERFORMER "Antonio Forcione"
INDEX 01 03:36:58
TRACK 03 AUDIO
TITLE "Mirror Mirror"
PERFORMER "Antonio Forcione"
INDEX 01 08:53:04
TRACK 04 AUDIO
TITLE "Alhambra"
PERFORMER "Antonio Forcione"
INDEX 01 11:18:07
TRACK 05 AUDIO
TITLE "Sunstep"
PERFORMER "Antonio Forcione"
INDEX 01 19:14:05
TRACK 06 AUDIO
TITLE "Gigolo"
PERFORMER "Antonio Forcione"
INDEX 01 24:56:63
TRACK 07 AUDIO
TITLE "Tango Suite"
PERFORMER "Antonio Forcione"
INDEX 01 29:12:23
TRACK 08 AUDIO
TITLE "For Vic"
PERFORMER "Antonio Forcione"
INDEX 01 36:20:56
TRACK 09 AUDIO
TITLE "Watercolour"
PERFORMER "Antonio Forcione"
INDEX 01 41:13:16
TRACK 10 AUDIO
TITLE "Nostalgia"
PERFORMER "Antonio Forcione"
INDEX 01 43:03:29
TRACK 11 AUDIO
TITLE "Scrambled Eggs"
PERFORMER "Antonio Forcione"
INDEX 01 49:31:34
TRACK 12 AUDIO
TITLE "Mirror"
PERFORMER "Antonio Forcione"
INDEX 01 53:56:26
Доп. информация: Такая раздача уже существует в коллекции альбомов Антонио, но у нее статус "Сомнительно", а эту пластинку я выписывал сам с сайта NAIM. Решил выложить. Дело за модераторами-админами.
 
Об исполнителе (группе)
Гитарист-виртуоз, тяготеющий к приджазованнности. Нравится в основном тем, кто знаком с гитарой не только по CD.
Any questions - support@pro-jazz.com. Есть вопросы - support@pro-jazz.com
17:48
378
Нет комментариев. Ваш будет первым!